<?xml version="1.0" standalone="no"?>
<!DOCTYPE svg PUBLIC "-//W3C//DTD SVG 1.1//EN" "http://www.w3.org/Graphics/SVG/1.1/DTD/svg11.dtd" >
<svg xmlns="http://www.w3.org/2000/svg">
<metadata>Generated by IcoMoon</metadata>
<defs>
<font id="phosphor" horiz-adv-x="1024">
<font-face units-per-em="1024" ascent="960" descent="-64" />
<missing-glyph horiz-adv-x="1024" />
<glyph unicode="&#x20;" horiz-adv-x="512" d="" />
<glyph unicode="&#xe900;" glyph-name="eye" d="M145.372 614.628c76.282 76.282 195.985 153.372 366.628 153.372s290.344-77.090 366.628-153.372c38.048-38.049 65.484-76.044 83.452-104.576 9-14.296 15.668-26.288 20.14-34.828 2.24-4.272 3.932-7.692 5.096-10.108 0.584-1.208 1.032-2.168 1.352-2.86 0.16-0.348 0.288-0.624 0.384-0.836l0.12-0.264 0.040-0.092 0.016-0.036c0.008-0.016 0.012-0.032-29.228-13.028 29.24-12.996 29.236-13.012 29.228-13.028l-0.016-0.036-0.040-0.092-0.12-0.264c-0.096-0.212-0.224-0.488-0.384-0.836-0.32-0.692-0.768-1.652-1.352-2.86-1.164-2.416-2.856-5.836-5.096-10.108-4.472-8.54-11.14-20.532-20.14-34.828-17.968-28.532-45.404-66.528-83.452-104.576-76.284-76.28-195.984-153.372-366.628-153.372-170.642 0-290.345 77.092-366.628 153.372-38.049 38.048-65.485 76.044-83.452 104.576-8.999 14.296-15.668 26.288-20.142 34.828-2.238 4.272-3.931 7.692-5.095 10.108-0.582 1.208-1.032 2.168-1.352 2.86-0.16 0.348-0.288 0.624-0.383 0.836l-0.177 0.392c-0.007 0.016-0.013 0.032 29.229 13.028-29.242 12.996-29.236 13.012-29.229 13.028l0.177 0.392c0.095 0.212 0.223 0.488 0.383 0.836 0.32 0.692 0.77 1.652 1.352 2.86 1.164 2.416 2.857 5.836 5.095 10.108 4.474 8.54 11.143 20.532 20.142 34.828 17.967 28.532 45.403 66.527 83.452 104.576zM64 448l-29.242-12.996c-3.677 8.272-3.677 17.72 0 25.992l29.242-12.996zM99.78 448c3.765-7.052 9.171-16.628 16.3-27.948 16.033-25.468 40.597-59.472 74.548-93.424 67.718-67.72 172.015-134.628 321.372-134.628s253.656 66.908 321.372 134.628c33.952 33.952 58.516 67.956 74.548 93.424 7.128 11.32 12.536 20.896 16.3 27.948-3.764 7.052-9.172 16.628-16.3 27.948-16.032 25.468-40.596 59.472-74.548 93.424-67.716 67.718-172.016 134.628-321.372 134.628-149.358 0-253.655-66.91-321.372-134.628-33.951-33.952-58.515-67.956-74.548-93.424-7.129-11.32-12.535-20.896-16.3-27.948zM960 448l29.24 12.996c3.68-8.272 3.68-17.72 0-25.992l-29.24 12.996zM512 576c-70.692 0-128-57.308-128-128s57.308-128 128-128c70.692 0 128 57.308 128 128s-57.308 128-128 128zM320 448c0 106.040 85.96 192 192 192s192-85.96 192-192c0-106.040-85.96-192-192-192s-192 85.96-192 192z" />
<glyph unicode="&#xe901;" glyph-name="star" d="M474.596 884.456c10.964 7.677 24.020 11.795 37.404 11.795s26.44-4.118 37.404-11.795c10.812-7.573 19.068-18.247 23.68-30.607l87.856-221.239c0.092-0.227 0.18-0.455 0.264-0.684 0.080-0.219 0.224-0.409 0.412-0.548s0.408-0.22 0.644-0.233l0.196-0.012 236.016-15.201c61.264-3.978 82.184-80.665 37.596-117.729-0.008-0.008-0.016-0.016-0.024-0.020l-180.852-150.844c-0.408-0.336-0.712-0.78-0.876-1.284-0.16-0.488-0.184-1.008-0.068-1.508 0.004-0.016 0.008-0.028 0.012-0.040l58.36-229.448c14.128-55.776-46.1-105.972-98.492-72.924l-0.080 0.048-201.6 128 17.152 27.016-17.172-27.004c-0.128 0.084-0.276 0.124-0.428 0.124s-0.3-0.040-0.428-0.124l-0.052-0.032-187.54-118.76c-0.010-0.008-0.020-0.012-0.029-0.020-57.472-36.54-123.852 19.012-108.162 80.508 0.002 0.012 0.005 0.020 0.008 0.032l53.945 212.584c0.003 0.012 0.006 0.024 0.009 0.036 0.117 0.5 0.094 1.024-0.067 1.512-0.165 0.504-0.468 0.948-0.875 1.284l-0.105 0.084-180.748 150.76c-0.009 0.004-0.017 0.012-0.026 0.020-44.586 37.064-23.666 113.751 37.597 117.729l236.215 15.213c0.233 0.014 0.456 0.094 0.644 0.233s0.33 0.329 0.412 0.548c0.085 0.229 0.172 0.457 0.262 0.684l87.857 221.239c4.612 12.36 12.868 23.034 23.68 30.607zM546.752 224.216c0.008-0.004 0.012-0.008 0.020-0.012l201.5-127.94c0.008-0.004 0.016-0.008 0.024-0.016 0.364-0.224 0.58-0.3 0.644-0.32 0.084 0.020 0.36 0.096 0.74 0.384 0.488 0.368 0.796 0.824 0.936 1.196 0.064 0.172 0.104 0.356 0.116 0.58 0.016 0.22 0.008 0.62-0.152 1.248 0 0.004 0 0.004 0 0.004l-58.44 229.752c-3.028 12.216-2.548 25.044 1.392 36.996 3.932 11.932 11.148 22.512 20.82 30.524 0.016 0.016 0.036 0.032 0.056 0.048l180.748 150.756c0.372 0.312 0.532 0.536 0.6 0.64 0.072 0.12 0.136 0.256 0.188 0.448 0.112 0.432 0.152 1.176-0.112 2.036-0.268 0.856-0.66 1.272-0.776 1.372-0.040 0.032-0.052 0.036-0.064 0.040-0.004 0.004-0.188 0.084-0.656 0.116-0.004 0-0.004 0-0.008 0l-235.788 15.186c-0.036 0.002-0.076 0.004-0.112 0.007-12.604 0.756-24.72 5.155-34.876 12.666-10.068 7.448-17.776 17.637-22.204 29.346l-87.888 221.318c-0.116 0.289-0.228 0.58-0.332 0.872-0.084 0.231-0.236 0.431-0.44 0.573-0.2 0.141-0.44 0.217-0.688 0.217s-0.488-0.076-0.688-0.217c-0.204-0.142-0.356-0.341-0.44-0.573-0.108-0.292-0.216-0.583-0.332-0.872l-87.888-221.318c-4.428-11.708-12.136-21.897-22.204-29.346-10.155-7.51-22.27-11.91-34.875-12.666l-235.899-15.193c-0.004 0-0.007 0-0.010 0-0.466-0.032-0.648-0.112-0.652-0.112-0.014-0.008-0.026-0.012-0.068-0.044-0.116-0.1-0.51-0.516-0.775-1.372-0.266-0.86-0.226-1.604-0.113-2.036 0.050-0.192 0.114-0.328 0.188-0.448 0.067-0.104 0.226-0.328 0.6-0.64l180.747-150.756c0.021-0.016 0.042-0.032 0.062-0.052 9.669-8.012 16.883-18.592 20.814-30.52 3.94-11.952 4.421-24.78 1.39-36.996l-0.041-0.164-54.013-212.852c-1.156-4.524 0.439-8.028 3.362-10.252 1.496-1.136 3.007-1.624 4.201-1.708 0.988-0.068 2.355 0.072 4.254 1.28l187.608 118.808c0.020 0.008 0.036 0.020 0.052 0.032 10.38 6.588 22.424 10.084 34.72 10.084 12.308 0 24.364-3.504 34.752-10.104z" />
<glyph unicode="&#xe902;" glyph-name="eye-slash" d="M170.474 823.678c13.077 11.888 33.316 10.924 45.204-2.152l640.002-704.002c11.888-13.076 10.924-33.312-2.156-45.204-13.076-11.888-33.312-10.924-45.204 2.156l-639.998 703.998c-11.888 13.077-10.924 33.316 2.152 45.204zM428.080 587.923c11.888-13.078 10.92-33.315-2.156-45.203-19.12-17.376-32.53-40.132-38.474-65.272-5.944-25.144-4.14-51.496 5.174-75.592 9.312-24.1 25.7-44.812 47.008-59.424 21.308-14.608 46.536-22.428 72.372-22.432h0.116c31.776-0.12 62.432 11.732 85.864 33.196 13.032 11.936 33.272 11.052 45.212-1.98 11.936-13.032 11.052-33.272-1.98-45.212-35.28-32.32-81.432-50.168-129.276-50.004-38.732 0.016-76.556 11.744-108.5 33.648-31.961 21.916-56.542 52.988-70.512 89.136-13.97 36.144-16.676 75.672-7.761 113.384 8.915 37.716 29.033 71.847 57.71 97.912 13.078 11.887 33.315 10.922 45.203-2.157zM324.566 700.023c-7.966 15.776-27.212 22.108-42.988 14.143-87.14-43.997-148.636-107.166-188.184-158.81-19.827-25.892-34.317-49.12-43.915-66.008-4.804-8.452-8.396-15.344-10.831-20.22-1.218-2.436-2.147-4.376-2.795-5.752-0.324-0.688-0.578-1.24-0.762-1.644-0.092-0.2-0.167-0.364-0.224-0.492l-0.073-0.164-0.038-0.088c-0.005-0.008-0.009-0.020 29.245-12.988-29.242-12.996-29.236-13.012-29.229-13.028l0.177-0.392c0.095-0.212 0.223-0.488 0.383-0.836 0.32-0.692 0.77-1.652 1.352-2.86 1.164-2.416 2.857-5.836 5.095-10.108 4.474-8.54 11.143-20.532 20.142-34.824 17.967-28.536 45.403-66.532 83.452-104.58 76.263-76.26 195.923-153.332 366.496-153.372 80.028-0.632 159.052 17.816 230.528 53.82 15.784 7.952 22.132 27.192 14.184 42.976-7.952 15.784-27.192 22.132-42.976 14.184-62.424-31.444-131.448-47.552-201.344-46.98h-0.26c-149.358 0-253.655 66.908-321.372 134.628-33.951 33.952-58.515 67.956-74.548 93.424-7.134 11.328-12.543 20.912-16.308 27.964 1.514 2.84 3.296 6.096 5.35 9.712 8.402 14.784 21.312 35.508 39.085 58.716 35.652 46.557 90.156 102.188 166.216 140.59 15.776 7.966 22.108 27.212 14.143 42.988zM64 448l-29.254 12.968c-3.665-8.268-3.661-17.7 0.012-25.964l29.242 12.996zM423.916 760.761c-17.428-2.918-29.194-19.413-26.277-36.844s19.413-29.196 36.845-26.278c25.592 4.284 51.504 6.412 77.452 6.361h0.064c149.356 0 253.656-66.91 321.372-134.628 33.952-33.952 58.516-67.956 74.548-93.424 7.128-11.32 12.536-20.896 16.3-27.948-4.572-8.564-11.56-20.84-21.104-35.436-19.372-29.628-49.024-68.416-90.052-105.112-13.172-11.784-14.296-32.012-2.516-45.188 11.784-13.172 32.016-14.296 45.188-2.516 46.172 41.304 79.32 84.716 100.948 117.788 10.832 16.572 18.84 30.644 24.2 40.704 2.68 5.032 4.7 9.072 6.084 11.924 0.692 1.428 1.228 2.56 1.604 3.376 0.192 0.408 0.34 0.732 0.452 0.98l0.136 0.304 0.048 0.104 0.028 0.060c0.004 0.008 0.008 0.016-29.236 13.012 29.244 12.996 29.236 13.012 29.228 13.028l-0.016 0.036-0.040 0.092-0.12 0.264c-0.096 0.212-0.224 0.488-0.384 0.836-0.32 0.692-0.768 1.652-1.352 2.86-1.164 2.416-2.856 5.836-5.096 10.108-4.472 8.54-11.14 20.532-20.14 34.828-17.968 28.532-45.404 66.527-83.452 104.576-76.28 76.278-195.972 153.363-366.596 153.372-29.524 0.056-58.996-2.365-88.116-7.239zM960 448l29.244-12.996c3.676 8.272 3.676 17.72 0 25.992l-29.244-12.996zM510.56 611.157c3.288 17.364 20.032 28.774 37.396 25.484 40.848-7.74 78.072-28.556 106.052-59.307s45.196-69.77 49.052-111.166c1.64-17.596-11.292-33.188-28.892-34.828-17.596-1.64-33.188 11.292-34.828 28.892-2.572 27.568-14.036 53.552-32.672 74.032-18.632 20.48-43.42 34.341-70.624 39.495-17.364 3.29-28.776 20.034-25.484 37.398z" />
<glyph unicode="&#xe903;" glyph-name="bag" d="M96 640c0 35.346 28.654 64 64 64h704c35.348 0 64-28.654 64-64v-512c0-35.348-28.652-64-64-64h-704c-35.346 0-64 28.652-64 64v512zM864 640h-704v-512h704v512zM512 800c-33.948 0-66.504-13.486-90.508-37.49-24.006-24.004-37.492-56.562-37.492-90.51v-128c0-17.672-14.327-32-32-32s-32 14.328-32 32v128c0 50.922 20.228 99.758 56.236 135.764s84.844 56.236 135.764 56.236 99.756-20.228 135.764-56.236c36.008-36.007 56.236-84.843 56.236-135.764v-128c0-17.672-14.328-32-32-32s-32 14.328-32 32v128c0 33.948-13.484 66.505-37.492 90.51-24.004 24.005-56.56 37.49-90.508 37.49z" />
<glyph unicode="&#xe904;" glyph-name="bag-simple" d="M96 640c0 35.346 28.654 64 64 64h704c35.348 0 64-28.654 64-64v-512c0-35.348-28.652-64-64-64h-704c-35.346 0-64 28.652-64 64v512zM864 640h-704v-512h704v512zM512 800c-33.948 0-66.504-13.486-90.508-37.49-24.006-24.004-37.492-56.562-37.492-90.51 0-17.673-14.327-32-32-32s-32 14.327-32 32c0 50.922 20.228 99.758 56.236 135.764s84.844 56.236 135.764 56.236 99.756-20.228 135.764-56.236c36.008-36.007 56.236-84.843 56.236-135.764 0-17.673-14.328-32-32-32s-32 14.327-32 32c0 33.948-13.484 66.505-37.492 90.51-24.004 24.005-56.56 37.49-90.508 37.49z" />
<glyph unicode="&#xe905;" glyph-name="handbag" d="M188.65 704h646.55v-32l0.152 32c15.648-0.074 30.736-5.844 42.444-16.233 11.704-10.389 19.228-24.685 21.16-40.216 0.016-0.141 0.032-0.281 0.048-0.422l56.792-511.928c0-0.008 0.004-0.016 0.004-0.020 1.004-8.916 0.128-17.944-2.58-26.496-2.712-8.56-7.192-16.456-13.152-23.172-5.96-6.712-13.268-12.1-21.448-15.804-8.176-3.708-17.044-5.652-26.024-5.708h-761.193c-8.979 0.056-17.846 2-26.024 5.708-8.178 3.704-15.486 9.092-21.446 15.804-5.961 6.716-10.442 14.612-13.152 23.172-2.705 8.544-3.585 17.564-2.583 26.472 0.002 0.016 0.004 0.028 0.005 0.044l56.792 511.928c0.016 0.141 0.032 0.281 0.050 0.422 1.932 15.531 9.454 29.828 21.16 40.216s26.794 16.159 42.445 16.233zM835.064 640h-646.129c-0.092-0.004-0.18-0.039-0.248-0.1-0.062-0.055-0.105-0.128-0.124-0.208l-56.766-511.692h760.407l-56.768 511.692c-0.016 0.080-0.060 0.153-0.124 0.208-0.068 0.061-0.156 0.096-0.248 0.1zM512 800c-33.948 0-66.504-13.486-90.508-37.49-24.006-24.004-37.492-56.562-37.492-90.51v-128c0-17.672-14.327-32-32-32s-32 14.328-32 32v128c0 50.922 20.228 99.758 56.236 135.764s84.844 56.236 135.764 56.236 99.756-20.228 135.764-56.236c36.008-36.007 56.236-84.843 56.236-135.764v-128c0-17.672-14.328-32-32-32s-32 14.328-32 32v128c0 33.948-13.484 66.505-37.492 90.51-24.004 24.005-56.56 37.49-90.508 37.49z" />
<glyph unicode="&#xe906;" glyph-name="handbag-simple" d="M188.65 704h646.55v-32l0.152 32c15.648-0.074 30.736-5.844 42.444-16.233 11.704-10.389 19.228-24.685 21.16-40.216 0.016-0.141 0.032-0.281 0.048-0.422l56.792-511.928c0-0.008 0.004-0.016 0.004-0.020 1.004-8.916 0.128-17.944-2.58-26.496-2.712-8.56-7.192-16.456-13.152-23.172-5.96-6.712-13.268-12.1-21.448-15.804-8.176-3.708-17.044-5.652-26.024-5.708h-761.193c-8.979 0.056-17.846 2-26.024 5.708-8.178 3.704-15.486 9.092-21.446 15.804-5.961 6.716-10.442 14.612-13.152 23.172-2.705 8.544-3.585 17.564-2.583 26.472 0.002 0.016 0.004 0.028 0.005 0.044l56.792 511.928c0.016 0.141 0.032 0.281 0.050 0.422 1.932 15.531 9.454 29.828 21.16 40.216s26.794 16.159 42.445 16.233zM835.064 640h-646.129c-0.092-0.004-0.18-0.039-0.248-0.1-0.062-0.055-0.105-0.128-0.124-0.208l-56.766-511.692h760.407l-56.768 511.692c-0.016 0.080-0.060 0.153-0.124 0.208-0.068 0.061-0.156 0.096-0.248 0.1zM512 800c-33.948 0-66.504-13.486-90.508-37.49-24.006-24.004-37.492-56.562-37.492-90.51 0-17.673-14.327-32-32-32s-32 14.327-32 32c0 50.922 20.228 99.758 56.236 135.764s84.844 56.236 135.764 56.236 99.756-20.228 135.764-56.236c36.008-36.007 56.236-84.843 56.236-135.764 0-17.673-14.328-32-32-32s-32 14.327-32 32c0 33.948-13.484 66.505-37.492 90.51-24.004 24.005-56.56 37.49-90.508 37.49z" />
<glyph unicode="&#xe907;" glyph-name="shopping-bag" d="M96 736c0 35.346 28.654 64 64 64h704c35.348 0 64-28.654 64-64v-576c0-35.348-28.652-64-64-64h-704c-35.346 0-64 28.652-64 64v576zM864 736h-704v-576h704v576zM352 640c17.673 0 32-14.327 32-32 0-33.948 13.486-66.504 37.492-90.508 24.004-24.008 56.56-37.492 90.508-37.492s66.504 13.484 90.508 37.492c24.008 24.004 37.492 56.56 37.492 90.508 0 17.673 14.328 32 32 32s32-14.327 32-32c0-50.92-20.228-99.756-56.236-135.764s-84.844-56.236-135.764-56.236c-50.92 0-99.756 20.228-135.764 56.236-36.007 36.008-56.236 84.844-56.236 135.764 0 17.673 14.327 32 32 32z" />
<glyph unicode="&#xe908;" glyph-name="shopping-bag-open" d="M96 736c0 35.346 28.654 64 64 64h704c35.348 0 64-28.654 64-64v-576c0-35.348-28.652-64-64-64h-704c-35.346 0-64 28.652-64 64v576zM864 736h-704v-576h704v576zM96 640c0 17.673 14.327 32 32 32h768c17.672 0 32-14.327 32-32s-14.328-32-32-32h-768c-17.673 0-32 14.327-32 32zM352 544c17.673 0 32-14.328 32-32 0-33.948 13.486-66.504 37.492-90.508 24.004-24.008 56.56-37.492 90.508-37.492s66.504 13.484 90.508 37.492c24.008 24.004 37.492 56.56 37.492 90.508 0 17.672 14.328 32 32 32s32-14.328 32-32c0-50.92-20.228-99.756-56.236-135.764s-84.844-56.236-135.764-56.236c-50.92 0-99.756 20.228-135.764 56.236-36.007 36.008-56.236 84.844-56.236 135.764 0 17.672 14.327 32 32 32z" />
<glyph unicode="&#xe909;" glyph-name="shopping-cart" d="M32 864c0 17.673 14.327 32 32 32h72.4c0.102 0 0.204 0 0.306-0.002 14.926-0.143 29.333-5.498 40.728-15.14 11.376-9.626 19.036-22.919 21.66-37.587 0.004-0.024 0.008-0.048 0.013-0.072l106.798-587.198h430.095c17.672 0 32-14.328 32-32s-14.328-32-32-32h-456.8c-15.464 0-28.716 11.060-31.484 26.272l-111.622 613.728h-72.094c-17.673 0-32 14.327-32 32zM320 192c-26.51 0-48-21.492-48-48s21.49-48 48-48c26.51 0 48 21.492 48 48s-21.49 48-48 48zM208 144c0 61.856 50.144 112 112 112s112-50.144 112-112c0-61.856-50.144-112-112-112s-112 50.144-112 112zM736 192c-26.508 0-48-21.492-48-48s21.492-48 48-48c26.508 0 48 21.492 48 48s-21.492 48-48 48zM624 144c0 61.856 50.144 112 112 112s112-50.144 112-112c0-61.856-50.144-112-112-112s-112 50.144-112 112zM160 704c0 17.673 14.327 32 32 32h672c9.492 0 18.492-4.214 24.572-11.502s8.612-16.901 6.908-26.238l-48.78-267.495c-0.004-0.020-0.008-0.040-0.012-0.060-3.968-22.112-15.6-42.116-32.848-56.508s-39.016-22.252-61.484-22.196h-502.356c-17.673 0-32 14.328-32 32s14.327 32 32 32h502.496c7.432-0.024 14.636 2.576 20.344 7.336 5.704 4.764 9.552 11.384 10.86 18.7l0.020 0.104 41.916 229.86h-633.636c-17.673 0-32 14.327-32 32z" />
<glyph unicode="&#xe90a;" glyph-name="shopping-cart-simple" d="M320 32c35.346 0 64 28.652 64 64s-28.654 64-64 64c-35.346 0-64-28.652-64-64s28.654-64 64-64zM736 32c35.348 0 64 28.652 64 64s-28.652 64-64 64c-35.348 0-64-28.652-64-64s28.652-64 64-64zM99.188 864c13.909 0.010 27.442-4.511 38.552-12.88 11.116-8.373 19.199-20.141 23.026-33.52l32.483-113.6h693.551c10.040 0 19.5-4.713 25.548-12.73 6.044-8.017 7.98-18.406 5.22-28.062l-105.56-369.461c-0.008-0.024-0.012-0.044-0.020-0.068-5.668-20.136-17.788-37.856-34.5-50.44-16.7-12.58-37.064-19.34-57.968-19.24h-383.038c-20.906-0.1-41.269 6.66-57.97 19.24-16.706 12.58-28.824 30.296-34.497 50.428-0.008 0.024-0.015 0.052-0.022 0.080l-144.759 506.252h-67.234c-17.673 0-32 14.327-32 32s14.327 32 32 32h67.188zM211.549 640l94.058-328.948c1.872-6.664 5.881-12.528 11.41-16.692 5.53-4.168 12.274-6.4 19.196-6.36h383.57c6.924-0.040 13.668 2.192 19.2 6.36 5.528 4.164 9.536 10.028 11.408 16.692l93.984 328.948h-632.827z" />
<glyph unicode="&#xe90b;" glyph-name="arrow-up" d="M512 832c17.672 0 32-14.327 32-32v-704c0-17.672-14.328-32-32-32s-32 14.328-32 32v704c0 17.673 14.328 32 32 32zM489.372 822.628c12.496 12.496 32.76 12.496 45.256 0l288-288c12.496-12.496 12.496-32.76 0-45.256s-32.76-12.496-45.256 0l-265.372 265.373-265.372-265.373c-12.497-12.496-32.758-12.496-45.255 0s-12.496 32.76 0 45.256l288 288z" />
<glyph unicode="&#xe90c;" glyph-name="arrow-down" d="M512 832c17.672 0 32-14.327 32-32v-704c0-17.672-14.328-32-32-32s-32 14.328-32 32v704c0 17.673 14.328 32 32 32zM201.372 406.628c12.497 12.496 32.758 12.496 45.255 0l265.372-265.372 265.372 265.372c12.496 12.496 32.76 12.496 45.256 0s12.496-32.76 0-45.256l-288-288c-12.496-12.496-32.76-12.496-45.256 0l-288 288c-12.496 12.496-12.496 32.76 0 45.256z" />
<glyph unicode="&#xe90d;" glyph-name="arrow-left" d="M128 448c0 17.672 14.327 32 32 32h704c17.672 0 32-14.328 32-32s-14.328-32-32-32h-704c-17.673 0-32 14.328-32 32zM470.628 758.628c12.496-12.497 12.496-32.758 0-45.255l-265.373-265.372 265.373-265.372c12.496-12.496 12.496-32.76 0-45.256s-32.76-12.496-45.256 0l-288 288c-12.496 12.496-12.496 32.76 0 45.256l288 288c12.496 12.496 32.76 12.496 45.256 0z" />
<glyph unicode="&#xe90e;" glyph-name="arrow-right" d="M128 448c0 17.672 14.327 32 32 32h704c17.672 0 32-14.328 32-32s-14.328-32-32-32h-704c-17.673 0-32 14.328-32 32zM553.372 758.628c12.496 12.496 32.76 12.496 45.256 0l288-288c12.496-12.496 12.496-32.76 0-45.256l-288-288c-12.496-12.496-32.76-12.496-45.256 0s-12.496 32.76 0 45.256l265.372 265.372-265.372 265.372c-12.496 12.497-12.496 32.758 0 45.255z" />
<glyph unicode="&#xe90f;" glyph-name="arrow-up-right" d="M790.628 726.628c12.496-12.497 12.496-32.758 0-45.255l-512-512c-12.497-12.496-32.758-12.496-45.255 0s-12.496 32.76 0 45.256l512 512c12.496 12.496 32.76 12.496 45.256 0zM320 704c0 17.673 14.327 32 32 32h416c17.672 0 32-14.327 32-32v-416c0-17.672-14.328-32-32-32s-32 14.328-32 32v384h-384c-17.673 0-32 14.327-32 32z" />
<glyph unicode="&#xe910;" glyph-name="arrow-down-right" d="M233.372 726.628c12.497 12.496 32.758 12.496 45.255 0l512-512c12.496-12.496 12.496-32.76 0-45.256s-32.76-12.496-45.256 0l-512 512c-12.496 12.497-12.496 32.758 0 45.255zM768 640c17.672 0 32-14.327 32-32v-416c0-17.672-14.328-32-32-32h-416c-17.673 0-32 14.328-32 32s14.327 32 32 32h384v384c0 17.673 14.328 32 32 32z" />
<glyph unicode="&#xe911;" glyph-name="arrow-down-left" d="M790.628 726.628c12.496-12.497 12.496-32.758 0-45.255l-512-512c-12.497-12.496-32.758-12.496-45.255 0s-12.496 32.76 0 45.256l512 512c12.496 12.496 32.76 12.496 45.256 0zM256 640c17.673 0 32-14.327 32-32v-384h384c17.672 0 32-14.328 32-32s-14.328-32-32-32h-416c-17.673 0-32 14.328-32 32v416c0 17.673 14.327 32 32 32z" />
<glyph unicode="&#xe912;" glyph-name="arrow-up-left" d="M233.372 726.628c12.497 12.496 32.758 12.496 45.255 0l512-512c12.496-12.496 12.496-32.76 0-45.256s-32.76-12.496-45.256 0l-512 512c-12.496 12.497-12.496 32.758 0 45.255zM224 704c0 17.673 14.327 32 32 32h416c17.672 0 32-14.327 32-32s-14.328-32-32-32h-384v-384c0-17.672-14.327-32-32-32s-32 14.328-32 32v416z" />
<glyph unicode="&#xe913;" glyph-name="arrows-down-up" d="M169.372 278.628c12.497 12.496 32.758 12.496 45.255 0l105.372-105.372 105.372 105.372c12.496 12.496 32.76 12.496 45.256 0s12.496-32.76 0-45.256l-128-128c-12.497-12.496-32.758-12.496-45.255 0l-128 128c-12.496 12.496-12.496 32.76 0 45.256zM320 800c17.673 0 32-14.327 32-32v-640c0-17.672-14.327-32-32-32s-32 14.328-32 32v640c0 17.673 14.327 32 32 32zM681.372 790.628c12.496 12.496 32.76 12.496 45.256 0l128-128c12.496-12.497 12.496-32.758 0-45.255s-32.76-12.496-45.256 0l-105.372 105.373-105.372-105.373c-12.496-12.496-32.76-12.496-45.256 0s-12.496 32.758 0 45.255l128 128zM704 800c17.672 0 32-14.327 32-32v-640c0-17.672-14.328-32-32-32s-32 14.328-32 32v640c0 17.673 14.328 32 32 32z" />
<glyph unicode="&#xe914;" glyph-name="caret-down" d="M169.372 598.628c12.497 12.496 32.758 12.496 45.255 0l297.372-297.372 297.372 297.372c12.496 12.496 32.76 12.496 45.256 0s12.496-32.758 0-45.256l-320-320c-12.496-12.496-32.76-12.496-45.256 0l-320 320c-12.496 12.497-12.496 32.759 0 45.256z" />
<glyph unicode="&#xe915;" glyph-name="caret-left" d="M662.628 790.628c12.496-12.497 12.496-32.758 0-45.255l-297.373-297.372 297.373-297.372c12.496-12.496 12.496-32.76 0-45.256s-32.76-12.496-45.256 0l-320 320c-12.496 12.496-12.496 32.76 0 45.256l320 320c12.496 12.496 32.76 12.496 45.256 0z" />
<glyph unicode="&#xe916;" glyph-name="caret-right" d="M361.372 790.628c12.497 12.496 32.758 12.496 45.256 0l320-320c12.496-12.496 12.496-32.76 0-45.256l-320-320c-12.497-12.496-32.759-12.496-45.256 0s-12.496 32.76 0 45.256l297.372 297.372-297.372 297.372c-12.496 12.497-12.496 32.758 0 45.255z" />
<glyph unicode="&#xe917;" glyph-name="caret-up" d="M489.372 662.628c12.496 12.496 32.76 12.496 45.256 0l320-320c12.496-12.496 12.496-32.76 0-45.256s-32.76-12.496-45.256 0l-297.372 297.373-297.372-297.373c-12.497-12.496-32.758-12.496-45.255 0s-12.496 32.76 0 45.256l320 320z" />
<glyph unicode="&#xe918;" glyph-name="caret-double-left" d="M822.628 790.628c12.496-12.497 12.496-32.758 0-45.255l-297.372-297.372 297.372-297.372c12.496-12.496 12.496-32.76 0-45.256s-32.76-12.496-45.256 0l-320 320c-12.496 12.496-12.496 32.76 0 45.256l320 320c12.496 12.496 32.76 12.496 45.256 0zM502.628 790.628c12.496-12.497 12.496-32.758 0-45.255l-297.373-297.372 297.373-297.372c12.496-12.496 12.496-32.76 0-45.256s-32.76-12.496-45.256 0l-320 320c-12.496 12.496-12.496 32.76 0 45.256l320 320c12.496 12.496 32.76 12.496 45.256 0z" />
<glyph unicode="&#xe919;" glyph-name="caret-double-right" d="M201.372 790.628c12.497 12.496 32.758 12.496 45.255 0l320-320c12.496-12.496 12.496-32.76 0-45.256l-320-320c-12.497-12.496-32.758-12.496-45.255 0s-12.496 32.76 0 45.256l297.372 297.372-297.372 297.372c-12.496 12.497-12.496 32.758 0 45.255zM521.372 790.628c12.496 12.496 32.76 12.496 45.256 0l320-320c12.496-12.496 12.496-32.76 0-45.256l-320-320c-12.496-12.496-32.76-12.496-45.256 0s-12.496 32.76 0 45.256l297.372 297.372-297.372 297.372c-12.496 12.497-12.496 32.758 0 45.255z" />
<glyph unicode="&#xe91a;" glyph-name="caret-double-up" d="M489.372 470.628c12.496 12.496 32.76 12.496 45.256 0l320-320c12.496-12.496 12.496-32.76 0-45.256s-32.76-12.496-45.256 0l-297.372 297.372-297.372-297.372c-12.497-12.496-32.758-12.496-45.255 0s-12.496 32.76 0 45.256l320 320zM489.372 790.628c12.496 12.496 32.76 12.496 45.256 0l320-320c12.496-12.496 12.496-32.76 0-45.256s-32.76-12.496-45.256 0l-297.372 297.373-297.372-297.373c-12.497-12.496-32.758-12.496-45.255 0s-12.496 32.76 0 45.256l320 320z" />
<glyph unicode="&#xe91b;" glyph-name="caret-double-down" d="M169.372 470.628c12.497 12.496 32.758 12.496 45.255 0l297.372-297.372 297.372 297.372c12.496 12.496 32.76 12.496 45.256 0s12.496-32.76 0-45.256l-320-320c-12.496-12.496-32.76-12.496-45.256 0l-320 320c-12.496 12.496-12.496 32.76 0 45.256zM169.372 790.628c12.497 12.496 32.758 12.496 45.255 0l297.372-297.372 297.372 297.372c12.496 12.496 32.76 12.496 45.256 0s12.496-32.758 0-45.255l-320-320c-12.496-12.496-32.76-12.496-45.256 0l-320 320c-12.496 12.497-12.496 32.758 0 45.255z" />
<glyph unicode="&#xe91c;" glyph-name="arrow-counter-clockwise" d="M127.2 785.2c17.673 0 32-14.327 32-32v-160h160c17.673 0 32-14.327 32-32s-14.327-32-32-32h-192c-17.673 0-32 14.328-32 32v192c0 17.673 14.327 32 32 32zM437.172 824.598c74.5 14.842 151.724 7.256 221.908-21.799 70.188-29.055 130.176-78.273 172.384-141.428 42.212-63.155 64.74-137.411 64.74-213.371s-22.528-150.216-64.74-213.372c-42.208-63.156-102.196-112.372-172.384-141.428-70.184-29.056-147.408-36.64-221.908-21.8-74.496 14.844-142.918 51.448-196.608 105.18-12.492 12.504-12.484 32.764 0.018 45.256s32.763 12.484 45.255-0.020c44.742-44.776 101.76-75.28 163.843-87.648 62.080-12.368 126.436-6.048 184.92 18.164 58.488 24.212 108.48 65.228 143.656 117.86 35.172 52.628 53.948 114.508 53.948 177.808s-18.776 125.18-53.948 177.81c-35.176 52.629-85.168 93.644-143.656 117.857-58.484 24.212-122.84 30.534-184.92 18.166-62.083-12.368-119.101-42.872-163.843-87.65l-0.042-0.042-136-135.599c-12.515-12.48-32.776-12.448-45.255 0.064-12.478 12.516-12.449 32.778 0.066 45.256l135.958 135.558c0.007 0.007 0.014 0.014 0.022 0.022 53.688 53.723 122.101 90.319 196.587 105.159z" />
<glyph unicode="&#xe91d;" glyph-name="arrow-clockwise" d="M896.8 785.2c17.672 0 32-14.327 32-32v-192c0-17.672-14.328-32-32-32h-192c-17.672 0-32 14.328-32 32s14.328 32 32 32h160v160c0 17.673 14.328 32 32 32zM574.32 761.832c-62.080 12.368-126.432 6.047-184.922-18.166-58.488-24.212-108.48-65.228-143.654-117.857s-53.948-114.51-53.948-177.81c0-63.3 18.774-125.18 53.948-177.808 35.174-52.632 85.166-93.648 143.654-117.86 58.49-24.212 122.842-30.532 184.922-18.164 62.084 12.368 119.1 42.872 163.844 87.648 12.492 12.504 32.752 12.512 45.256 0.020 12.5-12.492 12.508-32.752 0.016-45.256-53.692-53.732-122.112-90.336-196.608-105.18-74.5-14.84-151.724-7.256-221.909 21.8s-130.176 78.272-172.384 141.428c-42.208 63.156-64.738 137.412-64.738 213.372s22.529 150.216 64.738 213.371c42.208 63.156 102.199 112.374 172.384 141.428s147.409 36.641 221.909 21.799c74.488-14.84 142.904-51.438 196.592-105.163 0.004-0.006 0.012-0.012 0.016-0.017l135.96-135.558c12.512-12.478 12.544-32.74 0.064-45.256-12.476-12.512-32.74-12.544-45.256-0.064l-136.040 135.642c-44.744 44.779-101.76 75.282-163.844 87.65z" />
<glyph unicode="&#xe91e;" glyph-name="squares-four" d="M160 768c0 17.673 14.327 32 32 32h256c17.672 0 32-14.327 32-32v-256c0-17.672-14.328-32-32-32h-256c-17.673 0-32 14.328-32 32v256zM224 736v-192h192v192h-192zM544 768c0 17.673 14.328 32 32 32h256c17.672 0 32-14.327 32-32v-256c0-17.672-14.328-32-32-32h-256c-17.672 0-32 14.328-32 32v256zM608 736v-192h192v192h-192zM160 384c0 17.672 14.327 32 32 32h256c17.672 0 32-14.328 32-32v-256c0-17.672-14.328-32-32-32h-256c-17.673 0-32 14.328-32 32v256zM224 352v-192h192v192h-192zM544 384c0 17.672 14.328 32 32 32h256c17.672 0 32-14.328 32-32v-256c0-17.672-14.328-32-32-32h-256c-17.672 0-32 14.328-32 32v256zM608 352v-192h192v192h-192z" />
<glyph unicode="&#xe91f;" glyph-name="pencil-simple" d="M647.284 845.781c7.828 3.278 16.228 4.966 24.716 4.966s16.888-1.688 24.716-4.966c7.784-3.259 14.848-8.024 20.78-14.022l178.264-178.263c5.996-5.934 10.76-12.995 14.020-20.778 3.28-7.828 4.968-16.231 4.968-24.718s-1.688-16.889-4.968-24.718c-3.26-7.782-8.024-14.843-14.020-20.777l-479.988-479.989c-5.928-5.9-12.964-10.572-20.698-13.748-7.718-3.168-15.983-4.788-24.325-4.768h-178.748c-16.974 0-33.252 6.744-45.255 18.744-12.002 12.004-18.745 28.284-18.745 45.256v178.752c-0.021 8.344 1.6 16.604 4.768 24.32 3.178 7.736 7.849 14.772 13.748 20.7l479.984 479.984c5.936 5.999 12.996 10.765 20.784 14.024zM370.8 96l0.11 31.488-0.11 0.112v-31.6zM370.8 127.712v0.272c0.036 0.012 0.074 0.016 0.112 0.016l-0.001-0.4-0.111 0.112zM370.745 128l479.827 480.173-178.572 178.574-0.172-0.174-479.828-479.829v-178.744h178.745zM521.372 726.628c12.496 12.496 32.76 12.496 45.256 0l224-224c12.496-12.496 12.496-32.76 0-45.256s-32.76-12.496-45.256 0l-224 224c-12.496 12.497-12.496 32.758 0 45.255z" />
<glyph unicode="&#xe920;" glyph-name="pencil" d="M647.284 845.781c7.828 3.278 16.228 4.966 24.716 4.966s16.888-1.688 24.716-4.966c7.784-3.259 14.848-8.024 20.78-14.022l178.264-178.263c5.996-5.934 10.76-12.995 14.020-20.778 3.28-7.828 4.968-16.231 4.968-24.718s-1.688-16.889-4.968-24.718c-3.26-7.782-8.024-14.843-14.020-20.777l-479.988-479.989c-5.928-5.9-12.964-10.572-20.698-13.748-7.718-3.168-15.983-4.788-24.325-4.768h-178.748c-16.974 0-33.252 6.744-45.255 18.744-12.002 12.004-18.745 28.284-18.745 45.256v178.752c-0.021 8.344 1.6 16.604 4.768 24.32 3.178 7.736 7.849 14.772 13.748 20.7l479.984 479.984c5.936 5.999 12.996 10.765 20.784 14.024zM370.8 96l0.11 31.488-0.11 0.112v-31.6zM370.8 127.712v0.272c0.036 0.012 0.074 0.016 0.112 0.016l-0.001-0.4-0.111 0.112zM370.745 128l479.827 480.173-178.572 178.574-0.172-0.174-479.828-479.829v-178.744h178.745zM521.372 726.628c12.496 12.496 32.76 12.496 45.256 0l224-224c12.496-12.496 12.496-32.76 0-45.256s-32.76-12.496-45.256 0l-224 224c-12.496 12.497-12.496 32.758 0 45.255zM678.628 614.628c12.496-12.497 12.496-32.758 0-45.255l-384-384c-12.497-12.496-32.758-12.496-45.255 0s-12.496 32.76 0 45.256l384 384c12.496 12.496 32.76 12.496 45.256 0zM139.372 340.628c12.497 12.496 32.758 12.496 45.255 0l220-220c12.496-12.496 12.496-32.76 0-45.256-12.497-12.496-32.759-12.496-45.256 0l-220 220c-12.496 12.496-12.496 32.76 0 45.256z" />
<glyph unicode="&#xe921;" glyph-name="plus" d="M128 448c0 17.672 14.327 32 32 32h704c17.672 0 32-14.328 32-32s-14.328-32-32-32h-704c-17.673 0-32 14.328-32 32zM512 832c17.672 0 32-14.327 32-32v-704c0-17.672-14.328-32-32-32s-32 14.328-32 32v704c0 17.673 14.328 32 32 32z" />
<glyph unicode="&#xe922;" glyph-name="plus-circle" d="M512 800c-194.404 0-352-157.596-352-352s157.596-352 352-352c194.404 0 352 157.596 352 352s-157.596 352-352 352zM96 448c0 229.75 186.25 416 416 416 229.752 0 416-186.25 416-416 0-229.752-186.248-416-416-416-229.75 0-416 186.248-416 416zM320 448c0 17.672 14.327 32 32 32h320c17.672 0 32-14.328 32-32s-14.328-32-32-32h-320c-17.673 0-32 14.328-32 32zM512 640c17.672 0 32-14.327 32-32v-320c0-17.672-14.328-32-32-32s-32 14.328-32 32v320c0 17.673 14.328 32 32 32z" />
<glyph unicode="&#xe923;" glyph-name="minus" d="M128 448c0 17.672 14.327 32 32 32h704c17.672 0 32-14.328 32-32s-14.328-32-32-32h-704c-17.673 0-32 14.328-32 32z" />
<glyph unicode="&#xe924;" glyph-name="minus-circle" d="M512 800c-194.404 0-352-157.596-352-352s157.596-352 352-352c194.404 0 352 157.596 352 352s-157.596 352-352 352zM96 448c0 229.75 186.25 416 416 416 229.752 0 416-186.25 416-416 0-229.752-186.248-416-416-416-229.75 0-416 186.248-416 416zM320 448c0 17.672 14.327 32 32 32h320c17.672 0 32-14.328 32-32s-14.328-32-32-32h-320c-17.673 0-32 14.328-32 32z" />
<glyph unicode="&#xe925;" glyph-name="check" d="M886.628 694.628c12.496-12.497 12.496-32.758 0-45.255l-448-448c-12.496-12.496-32.76-12.496-45.256 0l-224 224c-12.496 12.496-12.496 32.76 0 45.256s32.758 12.496 45.255 0l201.372-201.372 425.372 425.372c12.496 12.496 32.76 12.496 45.256 0z" />
<glyph unicode="&#xe926;" glyph-name="arrows-left-right" d="M681.372 406.628c12.496 12.496 32.76 12.496 45.256 0l128-128c12.496-12.496 12.496-32.76 0-45.256l-128-128c-12.496-12.496-32.76-12.496-45.256 0s-12.496 32.76 0 45.256l105.372 105.372-105.372 105.372c-12.496 12.496-12.496 32.76 0 45.256zM160 256c0 17.672 14.327 32 32 32h640c17.672 0 32-14.328 32-32s-14.328-32-32-32h-640c-17.673 0-32 14.328-32 32zM342.628 790.628c12.496-12.497 12.496-32.758 0-45.255l-105.373-105.372 105.373-105.372c12.496-12.496 12.496-32.76 0-45.256s-32.758-12.496-45.255 0l-128 128c-12.496 12.497-12.496 32.758 0 45.255l128 128c12.497 12.496 32.758 12.496 45.255 0zM160 640c0 17.673 14.327 32 32 32h640c17.672 0 32-14.327 32-32s-14.328-32-32-32h-640c-17.673 0-32 14.327-32 32z" />
<glyph unicode="&#xe927;" glyph-name="list" d="M128 448c0 17.672 14.327 32 32 32h704c17.672 0 32-14.328 32-32s-14.328-32-32-32h-704c-17.673 0-32 14.328-32 32zM128 704c0 17.673 14.327 32 32 32h704c17.672 0 32-14.327 32-32s-14.328-32-32-32h-704c-17.673 0-32 14.327-32 32zM128 192c0 17.672 14.327 32 32 32h704c17.672 0 32-14.328 32-32s-14.328-32-32-32h-704c-17.673 0-32 14.328-32 32z" />
<glyph unicode="&#xe928;" glyph-name="arrows-counter-clockwise" d="M127.2 785.2c17.673 0 32-14.327 32-32v-160h160c17.673 0 32-14.327 32-32s-14.327-32-32-32h-192c-17.673 0-32 14.328-32 32v192c0 17.673 14.327 32 32 32zM365.074 802.71c46.578 19.313 96.506 29.253 146.926 29.253 50.424 0 100.348-9.94 146.928-29.253 46.576-19.313 88.888-47.619 124.516-83.298 12.488-12.506 12.472-32.767-0.032-45.255-12.508-12.488-32.768-12.473-45.256 0.033-29.684 29.727-64.936 53.31-103.744 69.401-38.804 16.091-80.404 24.373-122.412 24.373s-83.608-8.282-122.413-24.373c-38.806-16.090-74.059-39.674-103.743-69.401l-0.050-0.050-136-135.6c-12.515-12.48-32.776-12.448-45.255 0.068-12.478 12.512-12.449 32.775 0.066 45.253l135.95 135.55c0.008 0.008 0.017 0.017 0.025 0.025 35.622 35.668 77.926 63.965 124.492 83.273zM672.8 334.8c0 17.672 14.328 32 32 32h192c17.672 0 32-14.328 32-32v-192c0-17.672-14.328-32-32-32s-32 14.328-32 32v160h-160c-17.672 0-32 14.328-32 32zM919.46 357.392c12.48-12.512 12.448-32.776-0.064-45.252l-135.952-135.552c-0.008-0.008-0.016-0.016-0.024-0.024-35.624-35.668-77.928-63.964-124.492-83.272-46.58-19.316-96.504-29.256-146.928-29.256-50.42 0-100.348 9.94-146.926 29.256-46.577 19.312-88.89 47.616-124.517 83.296-12.488 12.508-12.473 32.768 0.033 45.256s32.767 12.472 45.255-0.032c29.684-29.728 64.937-53.312 103.743-69.404 38.805-16.088 80.405-24.372 122.413-24.372s83.608 8.284 122.412 24.372c38.808 16.092 74.060 39.676 103.744 69.404l136.052 135.648c12.512 12.48 32.776 12.448 45.252-0.068z" />
<glyph unicode="&#xe929;" glyph-name="arrows-clockwise" d="M896.8 785.2c17.672 0 32-14.327 32-32v-192c0-17.672-14.328-32-32-32h-192c-17.672 0-32 14.328-32 32s14.328 32 32 32h160v160c0 17.673 14.328 32 32 32zM512 767.963c-42.008 0-83.608-8.282-122.413-24.373s-74.059-39.674-103.743-69.401c-12.488-12.506-32.749-12.52-45.255-0.033s-12.52 32.749-0.033 45.255c35.628 35.68 77.94 63.986 124.517 83.298s96.506 29.253 146.926 29.253c50.424 0 100.348-9.94 146.928-29.253 46.568-19.309 88.872-47.607 124.496-83.277 0.004-0.007 0.012-0.014 0.020-0.022l135.952-135.55c12.512-12.478 12.544-32.741 0.064-45.253-12.476-12.516-32.74-12.548-45.252-0.068l-136.052 135.649c-29.684 29.727-64.936 53.31-103.744 69.401-38.804 16.091-80.404 24.373-122.412 24.373zM95.2 334.8c0 17.672 14.327 32 32 32h192c17.673 0 32-14.328 32-32s-14.327-32-32-32h-160v-160c0-17.672-14.327-32-32-32s-32 14.328-32 32v192zM104.54 357.392c12.478 12.516 32.74 12.548 45.255 0.068l136.050-135.648c29.684-29.728 64.937-53.312 103.743-69.404 38.805-16.088 80.405-24.372 122.413-24.372s83.608 8.284 122.412 24.372c38.808 16.092 74.060 39.676 103.744 69.404 12.488 12.504 32.748 12.52 45.256 0.032 12.504-12.488 12.52-32.748 0.032-45.256-35.628-35.68-77.94-63.984-124.516-83.296-46.58-19.316-96.504-29.256-146.928-29.256-50.42 0-100.348 9.94-146.926 29.256-46.565 19.308-88.868 47.604-124.49 83.268-0.009 0.012-0.018 0.020-0.027 0.028l-135.95 135.552c-12.515 12.476-12.545 32.74-0.066 45.252z" />
<glyph unicode="&#xe92a;" glyph-name="user-plus" d="M768 416c0 17.672 14.328 32 32 32h192c17.672 0 32-14.328 32-32s-14.328-32-32-32h-192c-17.672 0-32 14.328-32 32zM896 544c17.672 0 32-14.328 32-32v-192c0-17.672-14.328-32-32-32s-32 14.328-32 32v192c0 17.672 14.328 32 32 32zM432 768c-114.875 0-208-93.125-208-208s93.125-208 208-208c114.876 0 208 93.124 208 208s-93.124 208-208 208zM160 560c0 150.222 121.778 272 272 272 150.22 0 272-121.778 272-272 0-150.22-121.78-272-272-272-150.222 0-272 121.78-272 272zM432 288.044c-60.749 0-120.761-13.304-175.818-38.98-55.056-25.672-103.822-63.096-142.868-109.632-11.36-13.54-31.544-15.304-45.083-3.948-13.539 11.36-15.306 31.544-3.946 45.084 45.054 53.696 101.322 96.876 164.848 126.5s132.771 44.976 202.866 44.976c70.096 0 139.34-15.352 202.864-44.976 63.528-29.624 119.796-72.804 164.848-126.5 11.36-13.54 9.596-33.724-3.944-45.084-13.54-11.356-33.724-9.592-45.084 3.948-39.044 46.536-87.812 83.96-142.868 109.632-55.056 25.676-115.068 38.98-175.816 38.98z" />
<glyph unicode="&#xe92b;" glyph-name="user-minus" d="M768 416c0 17.672 14.328 32 32 32h192c17.672 0 32-14.328 32-32s-14.328-32-32-32h-192c-17.672 0-32 14.328-32 32zM432 768c-114.875 0-208-93.125-208-208s93.125-208 208-208c114.876 0 208 93.124 208 208s-93.124 208-208 208zM160 560c0 150.222 121.778 272 272 272 150.22 0 272-121.778 272-272 0-150.22-121.78-272-272-272-150.222 0-272 121.78-272 272zM432 288.044c-60.749 0-120.76-13.304-175.817-38.98-55.056-25.672-103.822-63.096-142.868-109.632-11.36-13.54-31.544-15.304-45.082-3.948-13.539 11.36-15.306 31.544-3.946 45.084 45.054 53.696 101.322 96.876 164.848 126.5s132.771 44.976 202.866 44.976c70.096 0 139.34-15.352 202.864-44.976 63.528-29.624 119.796-72.804 164.852-126.5 11.356-13.54 9.592-33.724-3.948-45.084-13.54-11.356-33.724-9.592-45.084 3.948-39.044 46.536-87.812 83.96-142.868 109.632-55.056 25.676-115.068 38.98-175.816 38.98z" />
<glyph unicode="&#xe92c;" glyph-name="user" d="M512 800c-123.712 0-224-100.288-224-224s100.288-224 224-224c123.712 0 224 100.288 224 224s-100.288 224-224 224zM224 576c0 159.058 128.942 288 288 288 159.060 0 288-128.942 288-288 0-159.060-128.94-288-288-288-159.058 0-288 128.94-288 288zM512 288.036c-73.028 0-144.773-19.224-208.017-55.744-63.244-36.516-115.76-89.040-152.269-152.288-8.835-15.308-28.406-20.552-43.712-11.72-15.306 8.836-20.552 28.408-11.717 43.712 42.126 72.98 102.722 133.584 175.695 175.72s155.755 64.32 240.019 64.32c84.264 0 167.044-22.184 240.020-64.32 72.972-42.136 133.568-102.74 175.696-175.72 8.832-15.304 3.588-34.876-11.72-43.712-15.304-8.832-34.876-3.588-43.712 11.72-36.508 63.248-89.024 115.772-152.268 152.288-63.244 36.52-134.988 55.744-208.016 55.744z" />
<glyph unicode="&#xe92d;" glyph-name="magnifying-glass-plus" d="M304 496c0 17.672 14.327 32 32 32h256c17.672 0 32-14.328 32-32s-14.328-32-32-32h-256c-17.673 0-32 14.328-32 32zM464 656c17.672 0 32-14.327 32-32v-256c0-17.672-14.328-32-32-32s-32 14.328-32 32v256c0 17.673 14.328 32 32 32zM464 800c-167.894 0-304-136.106-304-304 0-167.896 136.106-304 304-304 167.896 0 304 136.104 304 304 0 167.894-136.104 304-304 304zM96 496c0 203.241 164.759 368 368 368s368-164.759 368-368c0-203.24-164.76-368-368-368s-368 164.76-368 368zM678.972 281.028c12.496 12.496 32.76 12.496 45.256 0l194.4-194.4c12.496-12.496 12.496-32.76 0-45.256s-32.76-12.496-45.256 0l-194.4 194.4c-12.496 12.496-12.496 32.76 0 45.256z" />
<glyph unicode="&#xe92e;" glyph-name="magnifying-glass-minus" d="M304 496c0 17.672 14.327 32 32 32h256c17.672 0 32-14.328 32-32s-14.328-32-32-32h-256c-17.673 0-32 14.328-32 32zM464 800c-167.894 0-304-136.106-304-304 0-167.896 136.106-304 304-304 167.896 0 304 136.104 304 304 0 167.894-136.104 304-304 304zM96 496c0 203.241 164.759 368 368 368s368-164.759 368-368c0-203.24-164.76-368-368-368s-368 164.76-368 368zM678.972 281.028c12.496 12.496 32.76 12.496 45.256 0l194.4-194.4c12.496-12.496 12.496-32.76 0-45.256s-32.76-12.496-45.256 0l-194.4 194.4c-12.496 12.496-12.496 32.76 0 45.256z" />
<glyph unicode="&#xe92f;" glyph-name="magnifying-glass" d="M464 800c-167.894 0-304-136.106-304-304 0-167.896 136.106-304 304-304 167.896 0 304 136.104 304 304 0 167.894-136.104 304-304 304zM96 496c0 203.241 164.759 368 368 368s368-164.759 368-368c0-203.24-164.76-368-368-368s-368 164.76-368 368zM678.972 281.028c12.496 12.496 32.76 12.496 45.256 0l194.4-194.4c12.496-12.496 12.496-32.76 0-45.256s-32.76-12.496-45.256 0l-194.4 194.4c-12.496 12.496-12.496 32.76 0 45.256z" />
<glyph unicode="&#xe930;" glyph-name="text-align-right" d="M128 688c0 17.673 14.327 32 32 32h704c17.672 0 32-14.327 32-32s-14.328-32-32-32h-704c-17.673 0-32 14.327-32 32zM320 528c0 17.672 14.327 32 32 32h512c17.672 0 32-14.328 32-32s-14.328-32-32-32h-512c-17.673 0-32 14.328-32 32zM128 368c0 17.672 14.327 32 32 32h704c17.672 0 32-14.328 32-32s-14.328-32-32-32h-704c-17.673 0-32 14.328-32 32zM320 208c0 17.672 14.327 32 32 32h512c17.672 0 32-14.328 32-32s-14.328-32-32-32h-512c-17.673 0-32 14.328-32 32z" />
<glyph unicode="&#xe931;" glyph-name="text-align-left" d="M128 688c0 17.673 14.327 32 32 32h704c17.672 0 32-14.327 32-32s-14.328-32-32-32h-704c-17.673 0-32 14.327-32 32zM128 528c0 17.672 14.327 32 32 32h512c17.672 0 32-14.328 32-32s-14.328-32-32-32h-512c-17.673 0-32 14.328-32 32zM128 368c0 17.672 14.327 32 32 32h704c17.672 0 32-14.328 32-32s-14.328-32-32-32h-704c-17.673 0-32 14.328-32 32zM128 208c0 17.672 14.327 32 32 32h512c17.672 0 32-14.328 32-32s-14.328-32-32-32h-512c-17.673 0-32 14.328-32 32z" />
<glyph unicode="&#xe932;" glyph-name="text-align-justify" d="M128 688c0 17.673 14.327 32 32 32h704c17.672 0 32-14.327 32-32s-14.328-32-32-32h-704c-17.673 0-32 14.327-32 32zM128 528c0 17.672 14.327 32 32 32h704c17.672 0 32-14.328 32-32s-14.328-32-32-32h-704c-17.673 0-32 14.328-32 32zM128 368c0 17.672 14.327 32 32 32h704c17.672 0 32-14.328 32-32s-14.328-32-32-32h-704c-17.673 0-32 14.328-32 32zM128 208c0 17.672 14.327 32 32 32h704c17.672 0 32-14.328 32-32s-14.328-32-32-32h-704c-17.673 0-32 14.328-32 32z" />
<glyph unicode="&#xe933;" glyph-name="text-align-center" d="M128 688c0 17.673 14.327 32 32 32h704c17.672 0 32-14.327 32-32s-14.328-32-32-32h-704c-17.673 0-32 14.327-32 32zM224 528c0 17.672 14.327 32 32 32h512c17.672 0 32-14.328 32-32s-14.328-32-32-32h-512c-17.673 0-32 14.328-32 32zM128 368c0 17.672 14.327 32 32 32h704c17.672 0 32-14.328 32-32s-14.328-32-32-32h-704c-17.673 0-32 14.328-32 32zM224 208c0 17.672 14.327 32 32 32h512c17.672 0 32-14.328 32-32s-14.328-32-32-32h-512c-17.673 0-32 14.328-32 32z" />
<glyph unicode="&#xe934;" glyph-name="play" d="M288.841 855.868c9.946 5.544 21.19 8.333 32.574 8.082 11.36-0.251 22.447-3.522 32.123-9.476 0.020-0.012 0.041-0.025 0.062-0.038l575.328-351.831c9.404-5.62 17.2-13.572 22.632-23.092 5.476-9.6 8.356-20.46 8.356-31.512s-2.88-21.912-8.356-31.512c-5.432-9.52-13.228-17.472-22.632-23.092l-575.328-351.832c-0.024-0.012-0.048-0.028-0.072-0.044-9.674-5.948-20.758-9.216-32.113-9.468-11.384-0.252-22.628 2.536-32.574 8.080s-18.233 13.64-24.006 23.456c-5.773 9.812-8.823 20.992-8.836 32.376v704.071c0.012 11.386 3.062 22.563 8.836 32.378s14.060 17.911 24.006 23.454zM912.4 475.2l-16.5-26.984c0.068 0.044 0.14 0.088 0.212 0.128-0.060-0.036-0.108-0.084-0.144-0.144-0.036-0.064-0.052-0.132-0.052-0.2s0.016-0.136 0.052-0.2c0.036-0.060 0.084-0.108 0.144-0.144l16.288 27.544zM895.54 448l-575.54 351.965v-703.929l0.105 0.064 575.435 351.9z" />
<glyph unicode="&#xe935;" glyph-name="play-circle" d="M512 800c-194.404 0-352-157.596-352-352s157.596-352 352-352c194.404 0 352 157.596 352 352s-157.596 352-352 352zM96 448c0 229.75 186.25 416 416 416 229.752 0 416-186.25 416-416 0-229.752-186.248-416-416-416-229.75 0-416 186.248-416 416zM432.9 604.214c10.404 5.568 23.032 4.958 32.852-1.588l192-128.002c8.9-5.932 14.248-15.924 14.248-26.624s-5.348-20.692-14.248-26.624l-192-128c-9.82-6.548-22.448-7.16-32.852-1.588-10.404 5.568-16.9 16.412-16.9 28.212v256c0 11.802 6.496 22.645 16.9 28.214zM480 516.208v-136.416l102.312 68.208-102.312 68.208z" />
<glyph unicode="&#xe936;" glyph-name="phone-call" d="M606.692 808.294c4.584 17.069 22.132 27.193 39.204 22.612 59.696-16.022 114.132-47.464 157.84-91.171s75.148-98.142 91.172-157.84c4.58-17.069-5.544-34.618-22.612-39.202-17.072-4.58-34.62 5.544-39.204 22.613-13.112 48.857-38.844 93.405-74.612 129.175s-80.32 61.502-129.176 74.614c-17.068 4.581-27.192 22.132-22.612 39.201zM573.472 684.614c4.536 17.081 22.060 27.25 39.144 22.714 38.096-10.118 72.84-30.127 100.712-57.999s47.884-62.618 58-100.713c4.536-17.084-5.632-34.608-22.712-39.144-17.084-4.536-34.608 5.632-39.144 22.716-7.22 27.192-21.504 51.991-41.396 71.886-19.896 19.895-44.696 34.176-71.888 41.398-17.084 4.536-27.252 22.061-22.716 39.142zM323.533 862.14c13.831 1.774 27.862-1.046 39.933-8.027 12.017-6.95 21.429-17.639 26.801-30.436l80.285-187.33c0.012-0.027 0.024-0.054 0.032-0.080 4.16-9.606 5.896-20.085 5.060-30.519-0.836-10.463-4.232-20.56-9.892-29.4-0.072-0.11-0.144-0.219-0.212-0.328l-66.674-101.408c29.754-61.372 79.386-110.884 140.83-140.492l0.128 0.088 99.924 66.748c8.864 5.988 19.1 9.64 29.756 10.624 10.656 0.98 21.388-0.744 31.2-5.008 0.040-0.020 0.080-0.036 0.12-0.052l186.868-80.26c12.792-5.372 23.476-14.78 30.42-26.796 6.984-12.068 9.804-26.1 8.028-39.932-6.92-54.028-33.292-103.68-74.18-139.672-40.884-35.988-93.484-55.848-147.952-55.86h-0.008c-152.764 0-299.272 60.684-407.294 168.708-108.021 108.020-168.706 254.528-168.706 407.292v0.007c0.012 54.47 19.871 107.068 55.861 147.954 35.988 40.883 85.638 67.254 139.662 74.178zM370 460.8l-28.865-13.816c-4.726 9.876-6.84 20.8-6.139 31.724s4.191 21.488 10.139 30.676l0.126 0.196 66.586 101.274-80.461 187.74c-0.004 0.009-0.008 0.018-0.012 0.027-38.478-5.002-73.832-23.817-99.475-52.948-25.705-29.202-39.89-66.77-39.901-105.674zM704 128c38.904 0.012 76.472 14.196 105.676 39.9 29.128 25.644 47.944 60.996 52.944 99.476-0.016 0.008-0.032 0.012-0.048 0.020l-187.192 80.396-99.876-66.712c-0.024-0.016-0.044-0.032-0.068-0.048-9.196-6.192-19.84-9.888-30.896-10.728-11.080-0.84-22.192 1.216-32.236 5.976l-0.176 0.084c-74.6 35.888-134.849 95.98-170.929 170.488l28.801 13.948zM862.66 267.668v0.008zM192 639.992c0.002-135.788 53.944-266.016 149.961-362.032 96.019-96.016 226.243-149.96 362.031-149.96z" />
<glyph unicode="&#xe937;" glyph-name="phone" d="M323.533 862.14c13.831 1.774 27.862-1.046 39.933-8.027 12.017-6.95 21.429-17.639 26.801-30.436l80.285-187.33c0.012-0.027 0.024-0.054 0.032-0.080 4.16-9.606 5.896-20.085 5.060-30.519-0.836-10.463-4.232-20.56-9.892-29.4-0.072-0.11-0.144-0.219-0.212-0.328l-66.674-101.408c29.754-61.372 79.386-110.884 140.83-140.492l0.128 0.088 99.924 66.748c8.864 5.988 19.1 9.64 29.756 10.624 10.656 0.98 21.388-0.744 31.2-5.008 0.040-0.020 0.080-0.036 0.12-0.052l186.868-80.26c12.792-5.372 23.476-14.78 30.42-26.796 6.984-12.068 9.804-26.1 8.028-39.932-6.92-54.028-33.292-103.68-74.18-139.672-40.884-35.988-93.484-55.848-147.952-55.86h-0.008c-152.764 0-299.272 60.684-407.294 168.708-108.021 108.020-168.706 254.528-168.706 407.292v0.007c0.012 54.47 19.871 107.068 55.861 147.954 35.988 40.883 85.638 67.254 139.662 74.178zM370 460.8l-28.865-13.816c-4.726 9.876-6.84 20.8-6.139 31.724s4.191 21.488 10.139 30.676l0.126 0.196 66.586 101.274-80.461 187.74c-0.004 0.009-0.008 0.018-0.012 0.027-38.478-5.002-73.832-23.817-99.475-52.948-25.705-29.202-39.89-66.77-39.901-105.674zM704 128c38.904 0.012 76.472 14.196 105.676 39.9 29.128 25.644 47.944 60.996 52.944 99.476-0.016 0.008-0.032 0.012-0.048 0.020l-187.192 80.396-99.876-66.712c-0.024-0.016-0.044-0.032-0.068-0.048-9.196-6.192-19.84-9.888-30.896-10.728-11.080-0.84-22.192 1.216-32.236 5.976l-0.176 0.084c-74.6 35.888-134.849 95.98-170.929 170.488l28.801 13.948zM862.66 267.668v0.008zM192 639.992c0.002-135.788 53.944-266.016 149.961-362.032 96.019-96.016 226.243-149.96 362.031-149.96z" />
<glyph unicode="&#xe938;" glyph-name="clock" d="M512 800c-194.404 0-352-157.596-352-352s157.596-352 352-352c194.404 0 352 157.596 352 352s-157.596 352-352 352zM96 448c0 229.75 186.25 416 416 416 229.752 0 416-186.25 416-416 0-229.752-186.248-416-416-416-229.75 0-416 186.248-416 416zM512 704c17.672 0 32-14.327 32-32v-192h192c17.672 0 32-14.328 32-32s-14.328-32-32-32h-224c-17.672 0-32 14.328-32 32v224c0 17.673 14.328 32 32 32z" />
<glyph unicode="&#xe939;" glyph-name="chats-circle" d="M400.4 800.304c-62.348 3.898-123.976-15.102-173.307-53.43s-82.972-93.348-94.605-154.727c-11.632-61.378-0.456-124.894 31.43-178.614 4.491-7.564 5.668-16.644 3.256-25.108l-24.432-85.684 85.684 24.432c8.461 2.412 17.542 1.236 25.108-3.256 53.721-31.884 117.235-43.060 178.614-31.428 61.376 11.632 116.396 45.272 154.728 94.604 38.328 49.332 57.324 110.96 53.428 173.309s-30.424 121.131-74.6 165.305c-44.172 44.174-102.952 70.7-165.304 74.598zM187.826 797.412c61.645 47.895 138.655 71.637 216.57 66.767 77.912-4.871 151.364-38.019 206.564-93.219s88.348-128.654 93.22-206.566c4.872-77.914-18.872-154.922-66.768-216.57-47.896-61.644-116.648-103.68-193.348-118.216-72.079-13.66-146.514-2.152-210.935 32.356l-86.868-24.768c-9.575-2.692-19.695-2.788-29.318-0.272s-18.403 7.548-25.436 14.584c-7.033 7.032-12.066 15.812-14.582 25.436-2.516 9.62-2.422 19.74 0.27 29.316l0.032 0.116 24.737 86.752c-34.506 64.42-46.017 138.856-32.357 210.936 14.536 76.699 56.574 145.453 118.219 193.349zM623.644 641.277c0.928 17.649 15.984 31.205 33.632 30.278 54.976-2.886 108.276-19.924 154.732-49.462s84.496-70.577 110.428-119.137c25.936-48.56 38.888-102.996 37.6-158.032-1.176-50.328-14.224-99.596-37.992-143.824l24.76-86.84c2.696-9.576 2.788-19.696 0.272-29.316-2.516-9.624-7.548-18.404-14.58-25.436-7.036-7.036-15.816-12.068-25.44-14.584-9.62-2.516-19.74-2.42-29.316 0.272l-0.116 0.032-86.74 24.732c-37.48-20.108-78.644-32.556-121.084-36.56-47.124-4.444-94.648 1.636-139.136 17.796-44.492 16.164-84.836 42.004-118.12 75.66-33.282 33.656-58.674 74.288-74.34 118.952-5.85 16.676 2.928 34.94 19.605 40.788s34.938-2.928 40.788-19.604c12.527-35.724 32.835-68.216 59.455-95.132s58.884-47.584 94.464-60.512c35.58-12.924 73.588-17.784 111.276-14.232 37.688 3.556 74.116 15.436 106.652 34.788l16.356-27.504 8.776 30.772 85.684-24.432-24.432 85.684c-2.42 8.48-1.232 17.58 3.28 25.152 22.536 37.824 34.916 80.828 35.944 124.844 1.032 44.016-9.328 87.552-30.068 126.388s-51.164 71.656-88.316 95.278c-37.152 23.624-79.78 37.25-123.744 39.558-17.652 0.927-31.208 15.985-30.28 33.634z" />
<glyph unicode="&#xe93a;" glyph-name="chat-circle" d="M533.58 798.502c85.48-5.357 166.068-41.731 226.628-102.293 60.564-60.562 96.936-141.149 102.292-226.629 5.36-85.48-20.668-169.976-73.196-237.624s-127.94-113.8-212.084-129.788c-84.14-15.984-171.224-0.712-244.904 42.96l-16.316-27.528-8.718 30.788-132.371-37.476 37.479 132.372c2.389 8.436 1.21 17.488-3.262 25.032-43.67 73.676-58.945 160.764-42.958 244.904 15.987 84.143 62.138 159.556 129.787 212.083s152.143 78.555 237.623 73.198zM311.812 83.156c84.433-46.288 182.476-61.888 277.356-43.86 99.456 18.896 188.6 73.448 250.688 153.408 62.088 79.964 92.852 179.84 86.52 280.88s-49.328 196.294-120.912 267.88c-71.588 71.586-166.84 114.58-267.88 120.912s-200.915-24.434-280.878-86.522c-79.963-62.088-134.514-151.229-153.411-250.686-18.027-94.88-2.426-192.924 43.862-277.356l-33.915-119.784c-3.159-10.908-3.342-22.46-0.528-33.46 2.827-11.052 8.576-21.144 16.644-29.212s18.157-13.816 29.21-16.644c11.002-2.812 22.555-2.632 33.461 0.528l119.783 33.916z" />
<glyph unicode="&#xe93b;" glyph-name="chat-circle-text" d="M533.58 798.502c85.48-5.357 166.068-41.731 226.628-102.293 60.564-60.562 96.936-141.149 102.292-226.629 5.36-85.48-20.668-169.976-73.196-237.624s-127.94-113.8-212.084-129.788c-84.14-15.984-171.224-0.712-244.904 42.96l-16.316-27.528-8.718 30.788-132.371-37.476 37.479 132.372c2.389 8.436 1.21 17.488-3.262 25.032-43.67 73.676-58.945 160.764-42.958 244.904 15.987 84.143 62.138 159.556 129.787 212.083s152.143 78.555 237.623 73.198zM311.812 83.156c84.433-46.288 182.476-61.888 277.356-43.86 99.456 18.896 188.6 73.448 250.688 153.408 62.088 79.964 92.852 179.84 86.52 280.88s-49.328 196.294-120.912 267.88c-71.588 71.586-166.84 114.58-267.88 120.912s-200.915-24.434-280.878-86.522c-79.963-62.088-134.514-151.229-153.411-250.686-18.027-94.88-2.426-192.924 43.862-277.356l-33.915-119.784c-3.159-10.908-3.342-22.46-0.528-33.46 2.827-11.052 8.576-21.144 16.644-29.212s18.157-13.816 29.21-16.644c11.002-2.812 22.555-2.632 33.461 0.528l119.783 33.916zM352 512c0 17.672 14.327 32 32 32h256c17.672 0 32-14.328 32-32s-14.328-32-32-32h-256c-17.673 0-32 14.328-32 32zM352 384c0 17.672 14.327 32 32 32h256c17.672 0 32-14.328 32-32s-14.328-32-32-32h-256c-17.673 0-32 14.328-32 32z" />
<glyph unicode="&#xe93c;" glyph-name="chat-circle-dots" d="M533.58 798.502c85.48-5.357 166.068-41.731 226.628-102.293 60.564-60.562 96.936-141.149 102.292-226.629 5.36-85.48-20.668-169.976-73.196-237.624s-127.94-113.8-212.084-129.788c-84.14-15.984-171.224-0.712-244.904 42.96l-16.316-27.528-8.718 30.788-132.371-37.476 37.479 132.372c2.389 8.436 1.21 17.488-3.262 25.032-43.67 73.676-58.945 160.764-42.958 244.904 15.987 84.143 62.138 159.556 129.787 212.083s152.143 78.555 237.623 73.198zM311.812 83.156c84.433-46.288 182.476-61.888 277.356-43.86 99.456 18.896 188.6 73.448 250.688 153.408 62.088 79.964 92.852 179.84 86.52 280.88s-49.328 196.294-120.912 267.88c-71.588 71.586-166.84 114.58-267.88 120.912s-200.915-24.434-280.878-86.522c-79.963-62.088-134.514-151.229-153.411-250.686-18.027-94.88-2.426-192.924 43.862-277.356l-33.915-119.784c-3.159-10.908-3.342-22.46-0.528-33.46 2.827-11.052 8.576-21.144 16.644-29.212s18.157-13.816 29.21-16.644c11.002-2.812 22.555-2.632 33.461 0.528l119.783 33.916zM512 400c26.508 0 48 21.492 48 48s-21.492 48-48 48c-26.508 0-48-21.492-48-48s21.492-48 48-48zM320 400c26.51 0 48 21.492 48 48s-21.49 48-48 48c-26.51 0-48-21.492-48-48s21.49-48 48-48zM704 400c26.508 0 48 21.492 48 48s-21.492 48-48 48c-26.508 0-48-21.492-48-48s21.492-48 48-48z" />
<glyph unicode="&#xe93d;" glyph-name="chat" d="M114.745 749.255c12.002 12.002 28.281 18.745 45.255 18.745h704c16.972 0 33.252-6.743 45.256-18.745 12-12.002 18.744-28.281 18.744-45.255v-512c0-16.972-6.744-33.252-18.744-45.256-12.004-12-28.284-18.744-45.256-18.744h-533.992c0.192 0 0.378 0.068 0.523 0.196l-0.523 0.604v-0.8h-0.008v0.808l-20.4 23.592 20.523-24.552-129.322-108.1c-9.324-7.716-20.644-12.632-32.648-14.172-12.004-1.544-24.199 0.352-35.17 5.46s-20.269 13.224-26.815 23.404c-6.546 10.176-10.071 22.004-10.167 34.108l-0.001 0.252v635.2c0 16.974 6.743 33.252 18.745 45.255zM288.905 176.808c11.444 9.8 26.015 15.188 41.087 15.192h534.008v512h-704v-634.944l128.905 107.752z" />
<glyph unicode="&#xe93e;" glyph-name="chats" d="M114.745 813.255c12.002 12.002 28.281 18.745 45.255 18.745h512c16.972 0 33.252-6.743 45.256-18.745 12-12.002 18.744-28.281 18.744-45.255v-352c0-16.972-6.744-33.252-18.744-45.256-12.004-12-28.284-18.744-45.256-18.744h-374.287l-149.6-120.888c-9.59-7.752-22.778-9.3-33.904-3.988s-18.209 16.548-18.209 28.876v512c0 16.974 6.743 33.252 18.745 45.255zM672 768h-512v-445l106.287 85.888c5.694 4.604 12.793 7.112 20.113 7.112h385.6v352zM672 608c0 17.673 14.328 32 32 32h160c16.972 0 33.252-6.743 45.256-18.745 12-12.002 18.744-28.281 18.744-45.255v-512c0-12.328-7.084-23.564-18.208-28.876-11.128-5.312-24.316-3.764-33.904 3.988l-149.6 120.888h-374.288c-16.974 0-33.252 6.744-45.255 18.744-12.002 12.004-18.745 28.284-18.745 45.256v160c0 17.672 14.327 32 32 32s32-14.328 32-32v-160h385.6c7.32 0 14.42-2.508 20.112-7.112l106.288-85.888v445h-160c-17.672 0-32 14.327-32 32z" />
<glyph unicode="&#xe93f;" glyph-name="chat-dots" d="M114.745 749.255c12.002 12.002 28.281 18.745 45.255 18.745h704c16.972 0 33.252-6.743 45.256-18.745 12-12.002 18.744-28.281 18.744-45.255v-512c0-16.972-6.744-33.252-18.744-45.256-12.004-12-28.284-18.744-45.256-18.744h-533.992c0.192 0 0.378 0.068 0.523 0.196l-0.523 0.604v-0.8h-0.008v0.808l-20.4 23.592 20.523-24.552-129.322-108.1c-9.324-7.716-20.644-12.632-32.648-14.172-12.004-1.544-24.199 0.352-35.17 5.46s-20.269 13.224-26.815 23.404c-6.546 10.176-10.071 22.004-10.167 34.108l-0.001 0.252v635.2c0 16.974 6.743 33.252 18.745 45.255zM288.905 176.808c11.444 9.8 26.015 15.188 41.087 15.192h534.008v512h-704v-634.944l128.905 107.752zM512 400c26.508 0 48 21.492 48 48s-21.492 48-48 48c-26.508 0-48-21.492-48-48s21.492-48 48-48zM320 400c26.51 0 48 21.492 48 48s-21.49 48-48 48c-26.51 0-48-21.492-48-48s21.49-48 48-48zM704 400c26.508 0 48 21.492 48 48s-21.492 48-48 48c-26.508 0-48-21.492-48-48s21.492-48 48-48z" />
<glyph unicode="&#xe940;" glyph-name="chat-text" d="M114.745 749.255c12.002 12.002 28.281 18.745 45.255 18.745h704c16.972 0 33.252-6.743 45.256-18.745 12-12.002 18.744-28.281 18.744-45.255v-512c0-16.972-6.744-33.252-18.744-45.256-12.004-12-28.284-18.744-45.256-18.744h-531.742l-4.154-1.46-127.302-106.792c-9.324-7.716-20.644-12.632-32.648-14.172-12.004-1.544-24.199 0.352-35.17 5.46s-20.269 13.224-26.815 23.404c-6.546 10.176-10.071 22.004-10.167 34.108l-0.001 0.252v635.2c0 16.974 6.743 33.252 18.745 45.255zM864 704h-704v-634.944l131.434 110.26c2.951 2.476 6.325 4.396 9.959 5.676l14.8 5.2c3.408 1.196 6.995 1.808 10.608 1.808h537.2v512zM352 512c0 17.672 14.327 32 32 32h256c17.672 0 32-14.328 32-32s-14.328-32-32-32h-256c-17.673 0-32 14.328-32 32zM352 384c0 17.672 14.327 32 32 32h256c17.672 0 32-14.328 32-32s-14.328-32-32-32h-256c-17.673 0-32 14.328-32 32z" />
<glyph unicode="&#xe941;" glyph-name="printer" d="M224 800c0 17.673 14.327 32 32 32h512c17.672 0 32-14.327 32-32v-160c0-17.673-14.328-32-32-32s-32 14.327-32 32v128h-448v-128c0-17.673-14.327-32-32-32s-32 14.327-32 32v160zM224 352c0 17.672 14.327 32 32 32h512c17.672 0 32-14.328 32-32v-272c0-17.672-14.328-32-32-32h-512c-17.673 0-32 14.328-32 32v272zM288 320v-208h448v208h-448zM181.2 608c-22.745 0-37.2-16.798-37.2-32v-288h112c17.673 0 32-14.328 32-32s-14.327-32-32-32h-144c-17.673 0-32 14.328-32 32v320c0 55.198 47.945 96 101.2 96h661.6c53.256 0 101.2-40.802 101.2-96v-320c0-17.672-14.328-32-32-32h-144c-17.672 0-32 14.328-32 32s14.328 32 32 32h112v288c0 15.202-14.456 32-37.2 32h-661.6zM752 448c26.508 0 48 21.492 48 48s-21.492 48-48 48c-26.508 0-48-21.492-48-48s21.492-48 48-48z" />
<glyph unicode="&#xe942;" glyph-name="camera" d="M357.374 817.75c5.935 8.902 15.926 14.25 26.626 14.25h256c10.7 0 20.692-5.347 26.624-14.25l54.5-81.75h110.876c25.46 0 49.88-10.114 67.884-28.118 18-18.004 28.116-42.422 28.116-67.882v-448c0-25.46-10.116-49.88-28.116-67.884-18.004-18-42.424-28.116-67.884-28.116h-640c-25.461 0-49.879 10.116-67.882 28.116-18.003 18.004-28.118 42.424-28.118 67.884v448c0 25.461 10.114 49.879 28.118 67.882s42.422 28.118 67.882 28.118h110.874l54.5 81.75zM401.124 768l-54.498-81.75c-5.935-8.902-15.926-14.25-26.626-14.25h-128c-8.487 0-16.626-3.372-22.628-9.372s-9.372-14.141-9.372-22.628v-448c0-8.488 3.372-16.628 9.372-22.628s14.141-9.372 22.628-9.372h640c8.488 0 16.628 3.372 22.628 9.372s9.372 14.14 9.372 22.628v448c0 8.487-3.372 16.626-9.372 22.628s-14.14 9.372-22.628 9.372h-128c-10.7 0-20.692 5.347-26.624 14.25l-54.5 81.75h-221.752zM512 544c-61.856 0-112-50.144-112-112s50.144-112 112-112c61.856 0 112 50.144 112 112s-50.144 112-112 112zM336 432c0 97.204 78.796 176 176 176s176-78.796 176-176c0-97.204-78.796-176-176-176s-176 78.796-176 176z" />
<glyph unicode="&#xe943;" glyph-name="calendar-blank" d="M128 768c0 35.346 28.654 64 64 64h640c35.348 0 64-28.654 64-64v-640c0-35.348-28.652-64-64-64h-640c-35.346 0-64 28.652-64 64v640zM832 768h-640v-640h640v640zM704 896c17.672 0 32-14.327 32-32v-128c0-17.673-14.328-32-32-32s-32 14.327-32 32v128c0 17.673 14.328 32 32 32zM320 896c17.673 0 32-14.327 32-32v-128c0-17.673-14.327-32-32-32s-32 14.327-32 32v128c0 17.673 14.327 32 32 32zM128 608c0 17.673 14.327 32 32 32h704c17.672 0 32-14.327 32-32s-14.328-32-32-32h-704c-17.673 0-32 14.327-32 32z" />
<glyph unicode="&#xe944;" glyph-name="paperclip-horizontal" d="M288 640c0 17.673 14.327 32 32 32h448c59.408 0 116.384-23.6 158.392-65.608s65.608-98.984 65.608-158.392c0-59.408-23.6-116.384-65.608-158.392s-98.984-65.608-158.392-65.608h-584c-87.194 0-156.8 72.256-156.8 160s69.606 160 156.8 160h576c25.46 0 49.88-10.116 67.884-28.116 18-18.004 28.116-42.424 28.116-67.884s-10.116-49.88-28.116-67.884c-18.004-18-42.424-28.116-67.884-28.116h-448c-17.673 0-32 14.328-32 32s14.327 32 32 32h448c8.488 0 16.628 3.372 22.628 9.372s9.372 14.14 9.372 22.628c0 8.488-3.372 16.628-9.372 22.628s-14.14 9.372-22.628 9.372h-576c-50.406 0-92.8-42.144-92.8-96s42.394-96 92.8-96h584c42.436 0 83.132 16.856 113.136 46.864 30.008 30.004 46.864 70.7 46.864 113.136s-16.856 83.132-46.864 113.137c-30.004 30.006-70.7 46.863-113.136 46.863h-448c-17.673 0-32 14.327-32 32z" />
<glyph unicode="&#xe945;" glyph-name="paperclip" d="M592.112 818.114c30.436 27.578 70.312 42.395 111.372 41.384s80.156-17.772 109.2-46.814c29.040-29.042 45.804-68.14 46.812-109.199 1.012-41.059-13.804-80.934-41.384-111.37-0.3-0.334-0.612-0.661-0.928-0.982l-397.2-402.8c-0.42-0.428-0.852-0.844-1.296-1.244-18.264-16.548-42.189-25.44-66.824-24.832s-48.094 10.664-65.519 28.088c-17.425 17.428-27.482 40.884-28.089 65.52s8.284 48.56 24.83 66.824c0.293 0.32 0.592 0.64 0.898 0.952l333.2 338.798c12.392 12.601 32.652 12.77 45.252 0.377 12.604-12.392 12.772-32.653 0.38-45.253l-332.663-338.254c-5.284-6.032-8.114-13.836-7.916-21.868 0.202-8.212 3.555-16.032 9.363-21.84s13.628-9.16 21.84-9.364c7.963-0.196 15.704 2.584 21.716 7.784l395.953 401.533c16.276 18.202 25.008 41.93 24.408 66.356-0.608 24.636-10.664 48.094-28.088 65.519s-40.884 27.482-65.52 28.089c-24.356 0.6-48.020-8.084-66.2-24.272l-396.681-402.273c-29.962-29.96-46.795-70.6-46.795-112.972s16.833-83.012 46.795-112.972c29.962-29.964 70.6-46.796 112.972-46.796s83.012 16.832 112.972 46.796l328.428 327.628c12.512 12.48 32.772 12.456 45.256-0.056 12.48-12.512 12.456-32.772-0.056-45.256l-328.372-327.572c-41.964-41.964-98.88-65.54-158.228-65.54-59.347 0-116.263 23.576-158.227 65.54s-65.54 98.88-65.54 158.228c0 59.308 23.544 116.188 65.457 158.144l397.126 402.724c0.42 0.427 0.852 0.842 1.296 1.245z" />
<glyph unicode="&#xe946;" glyph-name="package" d="M480.584 899.018c9.56 5.479 20.392 8.362 31.416 8.362s21.856-2.884 31.416-8.362l351.984-197.992c9.848-5.592 18.048-13.681 23.772-23.452 5.72-9.771 8.768-20.878 8.828-32.202v-394.572h-32l32-0.172c-0.060-11.324-3.108-22.432-8.828-32.204-5.724-9.768-13.924-17.86-23.772-23.452l-0.112-0.064-351.872-197.928c-9.564-5.476-20.392-8.36-31.416-8.36s-21.852 2.884-31.416 8.36l-351.986 197.992c-9.847 5.592-18.045 13.684-23.768 23.452-5.723 9.772-8.769 20.88-8.83 32.204v394.744c0.061 11.324 3.106 22.431 8.83 32.202s13.921 17.86 23.768 23.452l0.114 0.064 351.872 197.927zM864 250.956v394.090c-0.004 0.064-0.020 0.127-0.056 0.182-0.032 0.057-0.080 0.105-0.136 0.139-0.004 0.002-0.008 0.004-0.012 0.006l-351.796 197.886-351.798-197.886c-0.004-0.002-0.007-0.004-0.011-0.006-0.056-0.034-0.103-0.082-0.136-0.139s-0.051-0.118-0.054-0.183v-394.089c0.003-0.064 0.022-0.128 0.054-0.184s0.080-0.104 0.136-0.14c0.004 0 0.008-0.004 0.012-0.004l351.798-197.888 351.796 197.888c0.008 0 0.008 0.004 0.012 0.004 0.056 0.036 0.104 0.084 0.136 0.14 0.036 0.056 0.052 0.12 0.056 0.184zM291.98 787.454c8.535 15.476 28 21.102 43.475 12.566l388.001-214c10.204-5.63 16.544-16.364 16.544-28.020v-208c0-17.672-14.328-32-32-32s-32 14.328-32 32v189.104l-371.454 204.875c-15.476 8.536-21.102 28-12.566 43.475zM104.449 677.18c8.605 15.437 28.094 20.975 43.531 12.371l367.472-204.831 360.34 204.704c15.368 8.73 34.9 3.349 43.632-12.018 8.728-15.367 3.348-34.9-12.016-43.63l-376-213.6c-9.724-5.524-21.624-5.572-31.388-0.128l-383.2 213.601c-15.437 8.605-20.976 28.094-12.371 43.531zM515.868 480c17.676-0.152 31.88-14.596 31.732-32.268l-3.6-427.2c-0.152-17.676-14.596-31.88-32.268-31.732-17.676 0.152-31.88 14.596-31.732 32.268l3.6 427.2c0.152 17.676 14.596 31.88 32.268 31.732z" />
<glyph unicode="&#xe947;" glyph-name="paint-brush-broad" d="M128 512c0 17.672 14.327 32 32 32h704c17.672 0 32-14.328 32-32s-14.328-32-32-32h-704c-17.673 0-32 14.328-32 32zM288 800c-25.461 0-49.879-10.114-67.882-28.118s-28.118-42.422-28.118-67.882v-288c0-8.488 3.372-16.628 9.372-22.628s14.141-9.372 22.628-9.372h187.2v-32l0.096 32c9.132-0.028 18.152-2.008 26.456-5.812 8.3-3.8 15.696-9.336 21.68-16.232 5.988-6.896 10.428-14.992 13.028-23.748 2.596-8.752 3.292-17.964 2.036-27.008l-0.016-0.124-26.448-185.12c0.52-16.232 7.192-31.692 18.712-43.212 12.004-12 28.284-18.744 45.256-18.744s33.252 6.744 45.256 18.744c11.52 11.52 18.192 26.98 18.712 43.212l-26.464 185.244c-1.256 9.044-0.56 18.252 2.036 27.008 2.6 8.756 7.040 16.852 13.028 23.748 5.984 6.896 13.38 12.432 21.68 16.232 8.304 3.804 17.324 5.784 26.456 5.812h187.296c8.488 0 16.628 3.372 22.628 9.372s9.372 14.14 9.372 22.628v384h-544zM411.104 320h-187.104c-25.461 0-49.879 10.116-67.882 28.116-18.003 18.004-28.118 42.424-28.118 67.884v288c0 42.435 16.857 83.131 46.863 113.137s70.702 46.863 113.137 46.863h576c17.672 0 32-14.327 32-32v-416c0-25.46-10.116-49.88-28.116-67.884-18.004-18-42.424-28.116-67.884-28.116h-187.104l26.784-187.476c0.212-1.496 0.32-3.008 0.32-4.524 0-33.948-13.484-66.504-37.492-90.508-24.004-24.008-56.56-37.492-90.508-37.492s-66.504 13.484-90.508 37.492c-24.006 24.004-37.492 56.56-37.492 90.508 0 1.516 0.108 3.028 0.322 4.524l26.782 187.476zM736 864c17.672 0 32-14.327 32-32v-192c0-17.673-14.328-32-32-32s-32 14.327-32 32v192c0 17.673 14.328 32 32 32z" />
<glyph unicode="&#xe948;" glyph-name="paint-brush-household" d="M265.372 566.628c12.497 12.496 32.758 12.496 45.255 0l320-320c12.496-12.496 12.496-32.76 0-45.256s-32.76-12.496-45.256 0l-320 320c-12.496 12.496-12.496 32.76 0 45.256zM429.828 249.028c12.496-12.496 12.496-32.76 0-45.256l-124.801-124.8c-12.497-12.496-32.758-12.496-45.255 0s-12.497 32.76 0 45.256l124.8 124.8c12.497 12.496 32.76 12.496 45.256 0zM317.827 361.028c12.497-12.496 12.497-32.76 0-45.256l-124.8-124.8c-12.497-12.496-32.758-12.496-45.255 0s-12.497 32.76 0 45.256l124.8 124.8c12.497 12.496 32.758 12.496 45.255 0zM787.184 813.921l-218.964-244.089-23.82 21.37 23.768-21.426c-5.812-6.451-12.88-11.652-20.768-15.284s-16.432-5.62-25.116-5.844c-8.68-0.228-17.316 1.32-25.384 4.54-8.064 3.216-15.388 8.045-21.528 14.185 0 0.001 0 0.002-0.004 0.003l-36.7 36.7c-6.052 5.929-14.192 9.252-22.668 9.252s-16.615-3.322-22.67-9.252c-0.024-0.023-0.047-0.046-0.071-0.070l-284.005-284.006 274.745-274.744 284.008 284.004c0.020 0.024 0.044 0.048 0.068 0.072 5.928 6.056 9.252 14.192 9.252 22.668s-3.324 16.616-9.252 22.668c-0.024 0.024-0.048 0.048-0.068 0.072l-36.632 36.632c0 0-0.004 0-0.004 0-6.14 6.14-10.968 13.464-14.184 21.528-3.22 8.068-4.768 16.704-4.544 25.384 0.228 8.684 2.216 17.228 5.848 25.116s8.832 14.956 15.284 20.772l0.056 0.048 244.088 218.963c11.692 11.978 18.248 28.060 18.248 44.817 0 17.018-6.76 33.339-18.796 45.373-12.032 12.034-28.352 18.794-45.372 18.794-16.756 0-32.84-6.555-44.816-18.246zM741.372 858.628c24.036 24.036 56.636 37.539 90.628 37.539s66.592-13.503 90.628-37.539c24.036-24.036 37.54-56.636 37.54-90.628s-13.504-66.592-37.54-90.627c-0.408-0.409-0.828-0.807-1.26-1.193l-244.744-219.548 36.968-36.972c17.772-18.036 27.736-42.34 27.736-67.66s-9.964-49.624-27.736-67.66l-0.164-0.168-306.8-306.8c-12.497-12.496-32.759-12.496-45.256 0l-320 320c-6.001 6.004-9.372 14.14-9.372 22.628s3.371 16.628 9.372 22.628l306.968 306.966c18.036 17.771 42.34 27.733 67.66 27.733s49.624-9.962 67.66-27.733l0.168-0.166 36.804-36.803 219.548 244.744c0.384 0.43 0.784 0.85 1.192 1.259z" />
<glyph unicode="&#xe949;" glyph-name="paint-roller" d="M128 704c0 35.346 28.654 64 64 64h608c35.348 0 64-28.654 64-64v-256c0-35.348-28.652-64-64-64h-608c-35.346 0-64 28.652-64 64v256zM800 704h-608v-256h608v256zM800 576c0 17.673 14.328 32 32 32h96c16.972 0 33.252-6.743 45.256-18.745 12-12.002 18.744-28.281 18.744-45.255v-200.264c-0.116-13.796-4.656-27.196-12.96-38.216-8.3-11.020-19.924-19.084-33.156-23.004-0.104-0.032-0.212-0.060-0.316-0.092l-401.316-114.316c-0.068-0.028-0.128-0.076-0.172-0.136-0.048-0.060-0.076-0.132-0.080-0.208v-135.764c0-17.672-14.328-32-32-32s-32 14.328-32 32v136.264c0.116 13.796 4.656 27.196 12.96 38.216 8.3 11.020 19.924 19.084 33.156 23.004 0.104 0.032 0.212 0.060 0.316 0.092l401.316 114.316c0.068 0.028 0.128 0.076 0.172 0.136 0.048 0.060 0.076 0.132 0.080 0.208v199.764h-96c-17.672 0-32 14.328-32 32zM32 576c0 17.673 14.327 32 32 32h96c17.673 0 32-14.327 32-32s-14.327-32-32-32h-96c-17.673 0-32 14.328-32 32z" />
<glyph unicode="&#xe94a;" glyph-name="paint-brush" d="M276.156 525.732c43.854 18.164 92.11 22.916 138.664 13.656 46.556-9.26 89.32-32.116 122.884-65.684 33.568-33.564 56.424-76.328 65.684-122.884 9.26-46.552 4.508-94.808-13.656-138.664s-48.928-81.336-88.396-107.708c-39.468-26.372-85.868-40.448-133.336-40.448h-288c-13.59 0-25.698 8.584-30.196 21.408-4.473 12.752-0.453 26.928 10.024 35.432 0.033 0.028 0.102 0.088 0.205 0.176 0.288 0.248 0.844 0.736 1.63 1.464 1.572 1.46 4.057 3.884 7.159 7.296 6.208 6.828 14.845 17.572 23.596 32.448 17.392 29.568 35.582 76.020 35.582 141.776 0 47.468 14.076 93.868 40.447 133.336s63.854 70.228 107.709 88.396zM402.336 476.62c-34.141 6.788-69.528 3.304-101.688-10.016-32.16-13.324-59.647-35.88-78.986-64.824s-29.661-62.972-29.661-97.78c0-78.244-21.811-135.792-44.418-174.224-0.351-0.596-0.702-1.188-1.053-1.776h221.471c34.808 0 68.836 10.324 97.78 29.66 28.944 19.34 51.5 46.828 64.824 78.988 13.32 32.16 16.804 67.548 10.016 101.688-6.792 34.14-23.556 65.5-48.168 90.116-24.616 24.612-55.976 41.376-90.116 48.168zM59.971 120.956l0.013 0.012c0 0 0 0 0 0zM658.044 680.609c-78.38-70.172-144.9-153.421-182.736-204.465-10.524-14.2-30.568-17.176-44.764-6.652-14.2 10.524-17.176 30.568-6.652 44.764 38.964 52.557 108.444 139.708 191.464 214.035 81.576 73.036 182.768 139.709 284.644 139.709 17.672 0 32-14.327 32-32 0-101.875-66.672-203.067-139.708-284.644-74.328-83.020-161.48-152.5-214.036-191.464-14.196-10.524-34.236-7.548-44.764 6.652-10.524 14.196-7.548 34.24 6.652 44.764 51.044 37.836 134.292 104.356 204.464 182.737 60.596 67.684 107.148 139.528 119.904 206.467-66.94-12.756-138.784-59.306-206.468-119.903zM504.132 613.328c8.684 15.391 28.204 20.827 43.596 12.14 59.276-33.453 108.288-82.464 141.74-141.74 8.688-15.392 3.252-34.912-12.14-43.596-15.392-8.688-34.912-3.252-43.596 12.14-27.724 49.12-68.336 89.736-117.46 117.46-15.392 8.686-20.828 28.205-12.14 43.596z" />
<glyph unicode="&#xe94b;" glyph-name="paint-bucket" d="M439.372 918.628c12.496 12.497 32.76 12.497 45.256 0l430-430c12.496-12.496 12.496-32.76 0-45.256l-384.968-384.964c-18.036-17.772-42.34-27.736-67.66-27.736s-49.624 9.964-67.66 27.736l-0.168 0.164-339.766 339.768c-17.771 18.036-27.733 42.34-27.733 67.66s9.962 49.624 27.733 67.66l0.166 0.168 384.8 384.8zM99.926 488.672c-5.93-6.056-9.253-14.196-9.253-22.672s3.323-16.616 9.253-22.672c0.023-0.020 0.046-0.044 0.068-0.068l339.266-339.268c0.024-0.020 0.048-0.044 0.072-0.068 6.056-5.928 14.192-9.252 22.668-9.252s16.612 3.324 22.668 9.252c0.024 0.024 0.048 0.048 0.072 0.068l362.004 362.008-384.744 384.745-362.074-362.073zM496 544c-26.508 0-48-21.492-48-48s21.492-48 48-48c26.508 0 48 21.492 48 48s-21.492 48-48 48zM384 496c0 61.856 50.144 112 112 112s112-50.144 112-112c0-61.856-50.144-112-112-112s-112 50.144-112 112zM934.628 326.628c-12.496 12.496-32.76 12.496-45.256 0l22.628-22.628 22.628 22.628zM889.34 281.404c-0.004 0.004-0.004 0.004 0 0zM912 254.892c4.276-5.564 8.832-11.828 13.376-18.644 18.936-28.404 34.624-61.868 34.624-92.248 0-12.732-5.056-24.94-14.060-33.94-9-9.004-21.208-14.060-33.94-14.060s-24.94 5.056-33.94 14.060c-9.004 9-14.060 21.208-14.060 33.94 0 30.38 15.688 63.844 34.624 92.248 4.544 6.816 9.1 13.080 13.376 18.644zM912 304c-22.628 22.628-22.632 22.62-22.64 22.616l-0.136-0.136-0.26-0.268c-0.212-0.216-0.5-0.508-0.856-0.876-0.716-0.736-1.708-1.776-2.94-3.096-2.46-2.636-5.892-6.412-9.964-11.164-8.12-9.472-18.952-23.008-29.828-39.324-21.064-31.596-45.376-78.132-45.376-127.752 0-29.704 11.8-58.192 32.804-79.196s49.492-32.804 79.196-32.804c29.704 0 58.192 11.8 79.196 32.804s32.804 49.492 32.804 79.196c0 49.62-24.312 96.156-45.376 127.752-10.876 16.316-21.708 29.852-29.828 39.324-4.072 4.752-7.504 8.528-9.964 11.164-1.232 1.32-2.224 2.36-2.94 3.096-0.356 0.368-0.644 0.66-0.856 0.876l-0.26 0.268-0.136 0.136c-0.008 0.004-0.012 0.012-22.64-22.616zM128.972 863.028c12.497 12.496 32.758 12.496 45.255 0l288.001-288c12.496-12.497 12.496-32.76 0-45.256s-32.76-12.496-45.256 0l-288 288.001c-12.497 12.497-12.497 32.758 0 45.255z" />
<glyph unicode="&#xe94c;" glyph-name="trash" d="M128 736c0 17.673 14.327 32 32 32h704c17.672 0 32-14.327 32-32s-14.328-32-32-32h-704c-17.673 0-32 14.327-32 32zM416 576c17.672 0 32-14.327 32-32v-256c0-17.672-14.328-32-32-32s-32 14.328-32 32v256c0 17.673 14.327 32 32 32zM608 576c17.672 0 32-14.327 32-32v-256c0-17.672-14.328-32-32-32s-32 14.328-32 32v256c0 17.673 14.328 32 32 32zM224 768c17.673 0 32-14.327 32-32v-608h512v608c0 17.673 14.328 32 32 32s32-14.327 32-32v-608c0-16.972-6.744-33.252-18.744-45.256-12.004-12-28.284-18.744-45.256-18.744h-512c-16.974 0-33.252 6.744-45.255 18.744-12.002 12.004-18.745 28.284-18.745 45.256v608c0 17.673 14.327 32 32 32zM348.118 867.882c18.004 18.003 42.422 28.118 67.882 28.118h192c25.46 0 49.88-10.114 67.884-28.118 18-18.004 28.116-42.422 28.116-67.882v-64c0-17.673-14.328-32-32-32s-32 14.327-32 32v64c0 8.487-3.372 16.626-9.372 22.628s-14.14 9.372-22.628 9.372h-192c-8.488 0-16.626-3.372-22.628-9.372s-9.372-14.141-9.372-22.628v-64c0-17.673-14.327-32-32-32s-32 14.327-32 32v64c0 25.461 10.114 49.879 28.118 67.882z" />
<glyph unicode="&#xe94d;" glyph-name="trash-simple" d="M128 736c0 17.673 14.327 32 32 32h704c17.672 0 32-14.327 32-32s-14.328-32-32-32h-704c-17.673 0-32 14.327-32 32zM320 864c0 17.673 14.327 32 32 32h320c17.672 0 32-14.327 32-32s-14.328-32-32-32h-320c-17.673 0-32 14.327-32 32zM224 768c17.673 0 32-14.327 32-32v-608h512v608c0 17.673 14.328 32 32 32s32-14.327 32-32v-608c0-16.972-6.744-33.252-18.744-45.256-12.004-12-28.284-18.744-45.256-18.744h-512c-16.974 0-33.252 6.744-45.255 18.744-12.002 12.004-18.745 28.284-18.745 45.256v608c0 17.673 14.327 32 32 32z" />
<glyph unicode="&#xe94e;" glyph-name="truck" d="M874.336 608h-170.336c-17.672 0-32 14.327-32 32s14.328 32 32 32h170.312c12.792 0.059 25.304-3.74 35.9-10.901 10.608-7.168 18.808-17.37 23.52-29.271 0.012-0.027 0.024-0.055 0.036-0.082l55.944-139.862c6.564-16.408-1.42-35.032-17.828-41.596s-35.032 1.42-41.596 17.828l-55.952 139.884zM32 384c0 17.672 14.327 32 32 32h640c17.672 0 32-14.328 32-32s-14.328-32-32-32h-640c-17.673 0-32 14.328-32 32zM752 256c-35.348 0-64-28.652-64-64s28.652-64 64-64c35.348 0 64 28.652 64 64s-28.652 64-64 64zM624 192c0 70.692 57.308 128 128 128s128-57.308 128-128c0-70.692-57.308-128-128-128s-128 57.308-128 128zM272 256c-35.346 0-64-28.652-64-64s28.654-64 64-64c35.346 0 64 28.652 64 64s-28.654 64-64 64zM144 192c0 70.692 57.308 128 128 128s128-57.308 128-128c0-70.692-57.308-128-128-128s-128 57.308-128 128zM336 192c0 17.672 14.327 32 32 32h288c17.672 0 32-14.328 32-32s-14.328-32-32-32h-288c-17.673 0-32 14.328-32 32zM50.745 717.255c12.002 12.002 28.281 18.745 45.255 18.745h608c17.672 0 32-14.327 32-32v-428.8c0-17.672-14.328-32-32-32s-32 14.328-32 32v396.8h-576v-448h80c17.673 0 32-14.328 32-32s-14.327-32-32-32h-80c-16.974 0-33.252 6.744-45.255 18.744-12.002 12.004-18.745 28.284-18.745 45.256v448c0 16.974 6.743 33.252 18.745 45.255zM672 480c0 17.672 14.328 32 32 32h256c17.672 0 32-14.328 32-32v-256c0-16.972-6.744-33.252-18.744-45.256-12.004-12-28.284-18.744-45.256-18.744h-80c-17.672 0-32 14.328-32 32s14.328 32 32 32h80v224h-224c-17.672 0-32 14.328-32 32z" />
<glyph unicode="&#xe94f;" glyph-name="paper-plane-right" d="M180.528 890.070c12.938 1.3 25.965-1.372 37.346-7.66l0.163-0.091 675.455-378.32c0.028-0.016 0.056-0.032 0.084-0.048 9.968-5.532 18.272-13.628 24.064-23.448 5.804-9.848 8.868-21.072 8.868-32.504s-3.064-22.656-8.868-32.504c-5.792-9.82-14.096-17.916-24.064-23.448-0.028-0.016-0.056-0.032-0.084-0.048l-675.618-378.408c-11.382-6.288-24.409-8.96-37.346-7.66s-25.173 6.508-35.076 14.936c-9.903 8.424-17.005 19.668-20.36 32.232-3.35 12.548-2.804 25.816 1.566 38.048 0.001 0 0.002 0.004 0.003 0.008 0.004 0.012 0.008 0.024 0.013 0.036l127.184 356.756c0.006 0.016 0.013 0.036 0.019 0.052-0.006 0.020-0.013 0.036-0.019 0.056l-127.184 356.754c-0.003 0.008-0.006 0.017-0.009 0.025-4.376 12.234-4.925 25.512-1.573 38.066 3.355 12.563 10.456 23.806 20.36 32.232s22.138 13.636 35.076 14.936zM878 476l-15.636-27.92-675.422 378.266 127.016-356.286c5.525-14.188 5.525-29.932 0-44.12l-127.032-356.328 675.582 378.388 15.492 28zM256 448c0 17.672 14.327 32 32 32h256c17.672 0 32-14.328 32-32s-14.328-32-32-32h-256c-17.673 0-32 14.328-32 32z" />
<glyph unicode="&#xe950;" glyph-name="paper-plane-tilt" d="M832.396 847.166c10.9 3.152 22.444 3.333 33.436 0.521 11.052-2.827 21.144-8.576 29.212-16.644s13.816-18.157 16.644-29.21c2.812-10.994 2.632-22.539-0.524-33.438l-209.896-745.234c-0.012-0.044-0.024-0.088-0.040-0.136-3.484-12.636-10.768-23.904-20.864-32.268-10.136-8.396-22.608-13.464-35.728-14.512-13.116-1.052-26.24 1.968-37.58 8.648-11.256 6.628-20.212 16.544-25.668 28.408l-161.9 342.188-342.19 161.9c-11.864 5.456-21.778 14.412-28.407 25.668-6.678 11.34-9.698 24.463-8.648 37.581s6.117 25.593 14.513 35.727c8.365 10.097 19.629 17.38 32.266 20.865 0.046 0.013 0.092 0.026 0.139 0.038l745.235 209.898zM841.2 816.4l8.632-30.651c0.044-0.030 0.088-0.053 0.14-0.066 0.068-0.018 0.14-0.016 0.212 0.004l-0.008 0.026-8.976 30.687zM849.488 785.49l-745.449-209.957c0.149-0.068 0.298-0.137 0.446-0.207l342.302-161.954c13.476-6.28 24.304-17.108 30.584-30.584l161.952-342.304c0.072-0.148 0.14-0.296 0.208-0.444l0.068 0.236 209.888 745.214zM647.028 583.028c12.496-12.497 12.496-32.76 0-45.256l-180.8-180.8c-12.496-12.496-32.76-12.496-45.256 0s-12.496 32.76 0 45.256l180.8 180.8c12.496 12.496 32.76 12.496 45.256 0z" />
<glyph unicode="&#xe951;" glyph-name="airplane-tilt" d="M727.38 753.996c11.344 9.128 25.524 14.17 40.22 14.17 17.020 0 33.34-6.76 45.372-18.794 12.036-12.034 18.796-28.355 18.796-45.373 0-16.213-6.136-31.793-17.124-43.636l-132.968-125.052c-9.316-8.764-12.52-22.228-8.148-34.248l121.036-332.848-54.3-54.3-169.436 248.128c-5.224 7.648-13.5 12.656-22.696 13.736-9.192 1.084-18.408-1.872-25.256-8.1l-96.8-88c-6.672-6.068-10.476-14.664-10.476-23.68v-82.744l-50.219-50.22-40.274 118.836c-3.202 9.448-10.627 16.86-20.079 20.048l-118.335 39.92 50.162 50.16h82.745c8.487 0 16.626 3.372 22.627 9.372l96 96c6.78 6.78 10.16 16.24 9.216 25.78-0.944 9.544-6.116 18.156-14.092 23.476l-255.523 170.346 53.988 53.988 332.847-121.035c11.984-4.358 25.416-1.184 34.18 8.079l126.8 134c0.608 0.645 1.188 1.309 1.736 1.99zM862.924 618.325c21.092 23.465 32.844 53.964 32.844 85.676 0 33.992-13.504 66.592-37.54 90.628s-56.636 37.539-90.628 37.539c-33.992 0-66.592-13.503-90.628-37.539-1.784-1.786-3.32-3.734-4.596-5.799l-105.58-111.576-332.26 120.822c-11.684 4.249-24.772 1.345-33.563-7.446l-96-96c-6.779-6.779-10.162-16.24-9.217-25.781s6.117-18.154 14.094-23.472l255.522-170.347-59.026-59.028h-82.745c-8.487 0-16.626-3.372-22.628-9.372l-96-96c-7.828-7.828-11.054-19.144-8.53-29.924s10.44-19.488 20.929-23.024l152.202-51.34 51.719-152.612c3.551-10.476 12.26-18.376 23.033-20.888 10.772-2.516 22.080 0.712 29.902 8.532l96 96c6 6.004 9.372 14.14 9.372 22.628v81.844l59.112 53.74 170.46-249.628c5.372-7.868 13.968-12.932 23.452-13.816 9.484-0.888 18.868 2.5 25.604 9.232l96 96c8.792 8.792 11.696 21.88 7.444 33.564l-120.796 332.192 114.672 107.847c0.928 0.74 1.82 1.54 2.68 2.398 0.016 0.017 0.036 0.034 0.052 0.052l2.348 2.348c0.82 0.819 1.584 1.671 2.296 2.552z" />
<glyph unicode="&#xe952;" glyph-name="map-pin" d="M512 640c-53.020 0-96-42.981-96-96s42.98-96 96-96c53.020 0 96 42.98 96 96s-42.98 96-96 96zM352 544c0 88.366 71.636 160 160 160s160-71.634 160-160c0-88.364-71.636-160-160-160s-160 71.636-160 160zM512 832c-76.384 0-149.636-30.343-203.647-84.353s-84.353-127.264-84.353-203.647c0-132.48 73.979-253.108 152.147-343.004 38.693-44.496 77.469-80.372 106.577-105.112 11.512-9.788 21.476-17.8 29.276-23.884 7.8 6.084 17.764 14.096 29.276 23.884 29.108 24.74 67.884 60.616 106.576 105.112 78.168 89.896 152.148 210.524 152.148 343.004 0 76.382-30.344 149.636-84.352 203.647-54.012 54.010-127.264 84.353-203.648 84.353zM512 32c-18.352-26.216-18.36-26.208-18.368-26.204l-0.028 0.020-0.076 0.052-0.236 0.168c-0.128 0.092-0.288 0.204-0.484 0.344-0.1 0.072-0.212 0.148-0.328 0.236-0.692 0.492-1.68 1.204-2.94 2.124-2.524 1.84-6.152 4.528-10.72 8.024-9.14 6.984-22.076 17.208-37.544 30.352-30.892 26.26-72.117 64.384-113.423 111.888-81.832 94.104-167.853 229.476-167.853 384.996 0 93.356 37.086 182.889 103.098 248.902s155.546 103.098 248.902 103.098c93.356 0 182.888-37.086 248.9-103.098 66.016-66.013 103.1-155.545 103.1-248.902 0-155.52-86.020-290.892-167.852-384.996-41.308-47.504-82.532-85.628-113.424-111.888-15.468-13.144-28.404-23.368-37.544-30.352-4.568-3.496-8.196-6.184-10.72-8.024-1.26-0.92-2.248-1.632-2.94-2.124-0.344-0.248-0.616-0.44-0.812-0.58l-0.236-0.168-0.076-0.052-0.028-0.020c-0.008-0.004-0.016-0.012-18.368 26.204zM512 32l18.352-26.216c-11.020-7.712-25.684-7.712-36.704 0l18.352 26.216z" />
<glyph unicode="&#xe953;" glyph-name="heart" d="M402.724 747.348c35.912-19.123 64.088-50.098 79.736-87.656l29.54 12.308 29.54-12.308c15.648 37.557 43.824 68.532 79.736 87.656 35.916 19.124 77.344 25.214 117.24 17.234s75.796-29.536 101.592-61c25.796-31.465 39.892-70.895 39.892-111.582 0-121.272-90.304-237.020-189.408-326.216-48.584-43.724-97.312-79.312-133.964-103.992-18.296-12.316-33.504-21.864-44.076-28.3-0.184-0.112-0.368-0.224-0.552-0.336-0.184 0.112-0.368 0.224-0.552 0.336-10.572 6.436-25.78 15.984-44.076 28.3-36.652 24.68-85.381 60.268-133.965 103.992-99.104 89.196-189.407 204.944-189.407 326.216 0 40.687 14.097 80.117 39.892 111.582s61.695 53.021 101.592 61c39.897 7.979 81.326 1.889 117.24-17.234zM512 736c-20.964 27.953-47.932 51.189-79.196 67.838-48.973 26.077-105.467 34.382-159.872 23.501s-103.359-40.275-138.534-83.182c-35.175-42.906-54.398-96.675-54.398-152.157 0-150.728 109.697-282.98 210.593-373.784 51.416-46.276 102.686-83.688 141.035-109.512 19.204-12.928 35.248-23.004 46.548-29.884 5.652-3.44 10.128-6.084 13.22-7.888 1.548-0.9 2.752-1.592 3.588-2.072 0.2-0.112 0.376-0.212 0.536-0.304 0.172-0.096 0.32-0.18 0.44-0.248l0.276-0.156 0.084-0.048 0.024-0.016c0.012-0.004 0.020-0.008 15.656 27.912l-15.636-27.92c9.716-5.44 21.556-5.44 31.272 0l-15.636 27.92c15.636-27.92 15.644-27.916 15.656-27.912l0.024 0.016 0.084 0.048 0.276 0.156c0.232 0.128 0.556 0.316 0.976 0.552 0.836 0.48 2.040 1.172 3.588 2.072 3.092 1.804 7.568 4.448 13.22 7.888 11.3 6.88 27.344 16.956 46.548 29.884 38.348 25.824 89.62 63.236 141.036 109.512 100.896 90.804 210.592 223.056 210.592 373.784 0 55.482-19.224 109.251-54.396 152.157-35.176 42.907-84.132 72.301-138.536 83.182s-110.9 2.576-159.872-23.501c-31.264-16.649-58.232-39.885-79.196-67.838z" />
<glyph unicode="&#xe954;" glyph-name="heart-break" d="M263.523 825.778c52.417 12.691 107.581 7.357 156.597-15.142 35.828-16.446 66.844-41.362 90.528-72.334l23.504 23.506c0.004 0.002 0.004 0.003 0.008 0.004 33.564 33.619 76.352 56.52 122.94 65.804 46.592 9.284 94.892 4.53 138.784-13.658 43.888-18.188 81.392-48.993 107.76-88.513s40.412-85.976 40.356-133.484c-0.020-150.714-109.704-282.95-210.592-373.746-51.416-46.276-102.688-83.688-141.036-109.512-19.204-12.928-35.248-23.004-46.548-29.884-5.652-3.44-10.128-6.084-13.22-7.888-1.548-0.9-2.752-1.592-3.588-2.072-0.42-0.236-0.744-0.424-0.976-0.552l-0.276-0.156-0.112-0.064c-0.008-0.004-0.016-0.008-15.652 27.912-15.636-27.92-15.644-27.916-15.656-27.912l-0.024 0.016-0.084 0.048-0.276 0.156c-0.232 0.128-0.556 0.316-0.976 0.552-0.836 0.48-2.040 1.172-3.588 2.072-3.096 1.804-7.568 4.448-13.22 7.888-11.3 6.88-27.344 16.956-46.548 29.884-38.349 25.824-89.619 63.236-141.035 109.512-100.887 90.796-210.574 223.032-210.593 373.744-0.125 53.918 17.909 106.307 51.196 148.724 33.295 42.427 79.91 72.403 132.328 85.094zM512 96l15.636-27.92c-9.716-5.44-21.556-5.44-31.272 0l15.636 27.92zM512 133.156c0.184 0.112 0.368 0.224 0.552 0.336 10.572 6.436 25.78 15.984 44.076 28.3 36.652 24.68 85.38 60.268 133.964 103.992 99.104 89.196 189.408 204.944 189.408 326.216v0.038c0.040 34.84-10.26 68.907-29.596 97.888s-46.84 51.571-79.024 64.909c-32.184 13.338-67.604 16.824-101.772 10.016s-65.548-23.604-90.16-48.26l-48.78-48.778c-1.716-2.256-3.748-4.304-6.072-6.072l-50.54-50.542 105.372-105.372c12.496-12.496 12.496-32.76 0-45.256l-64-64c-12.496-12.496-32.76-12.496-45.256 0s-12.496 32.76 0 45.256l41.372 41.372-105.372 105.372c-6 6.001-9.372 14.14-9.372 22.627s3.372 16.626 9.372 22.628l58.672 58.671c-17.9 25.933-42.528 46.71-71.423 59.973-35.944 16.499-76.398 20.41-114.837 11.104s-72.624-31.29-97.040-62.403c-24.416-31.113-37.642-69.543-37.543-109.093v-0.080c0-121.272 90.302-237.020 189.407-326.216 48.584-43.724 97.313-79.312 133.965-103.992 18.296-12.316 33.504-21.864 44.076-28.3 0.184-0.112 0.368-0.224 0.552-0.336z" />
<glyph unicode="&#xe955;" glyph-name="close-square" d="M662.628 598.628c12.496-12.497 12.496-32.758 0-45.256l-256-256c-12.497-12.496-32.759-12.496-45.256 0s-12.496 32.76 0 45.256l256 256c12.496 12.496 32.76 12.496 45.256 0zM361.372 598.628c12.497 12.496 32.758 12.496 45.256 0l256-256c12.496-12.496 12.496-32.76 0-45.256s-32.76-12.496-45.256 0l-256 256c-12.496 12.497-12.496 32.759 0 45.256zM128 768c0 35.346 28.654 64 64 64h640c35.348 0 64-28.654 64-64v-640c0-35.348-28.652-64-64-64h-640c-35.346 0-64 28.652-64 64v640zM832 768h-640v-640h640v640z" />
<glyph unicode="&#xe956;" glyph-name="close-circle" d="M512 800c-194.404 0-352-157.596-352-352s157.596-352 352-352c194.404 0 352 157.596 352 352s-157.596 352-352 352zM96 448c0 229.75 186.25 416 416 416 229.752 0 416-186.25 416-416 0-229.752-186.248-416-416-416-229.75 0-416 186.248-416 416zM662.628 598.628c12.496-12.497 12.496-32.758 0-45.256l-256-256c-12.497-12.496-32.759-12.496-45.256 0s-12.496 32.76 0 45.256l256 256c12.496 12.496 32.76 12.496 45.256 0zM361.372 598.628c12.497 12.496 32.758 12.496 45.256 0l256-256c12.496-12.496 12.496-32.76 0-45.256s-32.76-12.496-45.256 0l-256 256c-12.496 12.497-12.496 32.759 0 45.256z" />
<glyph unicode="&#xe957;" glyph-name="close" d="M822.628 758.628c12.496-12.497 12.496-32.758 0-45.255l-576-576c-12.497-12.496-32.758-12.496-45.255 0s-12.496 32.76 0 45.256l576 576c12.496 12.496 32.76 12.496 45.256 0zM201.372 758.628c12.497 12.496 32.758 12.496 45.255 0l576-576c12.496-12.496 12.496-32.76 0-45.256s-32.76-12.496-45.256 0l-576 576c-12.496 12.497-12.496 32.758 0 45.255z" />
<glyph unicode="&#xe958;" glyph-name="upload-simple" d="M489.372 822.628c12.496 12.496 32.76 12.496 45.256 0l168-168c12.496-12.497 12.496-32.758 0-45.255s-32.76-12.496-45.256 0l-145.372 145.373-145.372-145.373c-12.497-12.496-32.758-12.496-45.255 0s-12.496 32.758 0 45.255l168 168zM512 832c17.672 0 32-14.327 32-32v-448c0-17.672-14.328-32-32-32s-32 14.328-32 32v448c0 17.673 14.328 32 32 32zM160 384c17.673 0 32-14.328 32-32v-224h640v224c0 17.672 14.328 32 32 32s32-14.328 32-32v-224c0-16.972-6.744-33.252-18.744-45.256-12.004-12-28.284-18.744-45.256-18.744h-640c-16.974 0-33.252 6.744-45.255 18.744-12.002 12.004-18.745 28.284-18.745 45.256v224c0 17.672 14.327 32 32 32z" />
<glyph unicode="&#xe959;" glyph-name="file-text" d="M178.745 845.255c12.002 12.002 28.281 18.745 45.255 18.745h384c8.488 0 16.628-3.372 22.628-9.372l224-224c6-6.001 9.372-14.141 9.372-22.628v-512c0-16.972-6.744-33.252-18.744-45.256-12.004-12-28.284-18.744-45.256-18.744h-576c-16.974 0-33.252 6.744-45.255 18.744-12.002 12.004-18.745 28.284-18.745 45.256v704c0 16.974 6.743 33.252 18.745 45.255zM594.744 800h-370.744v-704h576v498.745l-205.256 205.255zM608 864c17.672 0 32-14.327 32-32v-192h192c17.672 0 32-14.327 32-32s-14.328-32-32-32h-224c-17.672 0-32 14.327-32 32v224c0 17.673 14.328 32 32 32zM352 416c0 17.672 14.327 32 32 32h256c17.672 0 32-14.328 32-32s-14.328-32-32-32h-256c-17.673 0-32 14.328-32 32zM352 288c0 17.672 14.327 32 32 32h256c17.672 0 32-14.328 32-32s-14.328-32-32-32h-256c-17.673 0-32 14.328-32 32z" />
<glyph unicode="&#xe95a;" glyph-name="upload" d="M82.745 461.256c12.002 12 28.281 18.744 45.255 18.744h192c17.673 0 32-14.328 32-32s-14.327-32-32-32h-192v-256h768v256h-192c-17.672 0-32 14.328-32 32s14.328 32 32 32h192c16.972 0 33.252-6.744 45.256-18.744 12-12.004 18.744-28.284 18.744-45.256v-256c0-16.972-6.744-33.252-18.744-45.256-12.004-12-28.284-18.744-45.256-18.744h-768c-16.974 0-33.252 6.744-45.255 18.744-12.002 12.004-18.745 28.284-18.745 45.256v256c0 16.972 6.743 33.252 18.745 45.256zM512 896c17.672 0 32-14.327 32-32v-416c0-17.672-14.328-32-32-32s-32 14.328-32 32v416c0 17.673 14.328 32 32 32zM489.372 886.628c12.496 12.496 32.76 12.496 45.256 0l192-192c12.496-12.497 12.496-32.758 0-45.255s-32.76-12.496-45.256 0l-169.372 169.373-169.372-169.373c-12.497-12.496-32.758-12.496-45.255 0s-12.496 32.758 0 45.255l192 192zM752 240c26.508 0 48 21.492 48 48s-21.492 48-48 48c-26.508 0-48-21.492-48-48s21.492-48 48-48z" />
<glyph unicode="&#xe95b;" glyph-name="file" d="M178.745 845.255c12.002 12.002 28.281 18.745 45.255 18.745h384c8.488 0 16.628-3.372 22.628-9.372l224-224c6-6.001 9.372-14.141 9.372-22.628v-512c0-16.972-6.744-33.252-18.744-45.256-12.004-12-28.284-18.744-45.256-18.744h-576c-16.974 0-33.252 6.744-45.255 18.744-12.002 12.004-18.745 28.284-18.745 45.256v704c0 16.974 6.743 33.252 18.745 45.255zM594.744 800h-370.744v-704h576v498.745l-205.256 205.255zM608 864c17.672 0 32-14.327 32-32v-192h192c17.672 0 32-14.327 32-32s-14.328-32-32-32h-224c-17.672 0-32 14.327-32 32v224c0 17.673 14.328 32 32 32z" />
<glyph unicode="&#xe95c;" glyph-name="folder" d="M96 640c0 17.673 14.327 32 32 32h736c16.972 0 33.252-6.743 45.256-18.745 12-12.002 18.744-28.281 18.744-45.255v-451.6c0-16.020-6.364-31.384-17.692-42.708-11.324-11.328-26.688-17.692-42.708-17.692h-710c-8.090 0-16.1 1.592-23.573 4.688s-14.264 7.636-19.984 13.356c-5.72 5.72-10.258 12.508-13.353 19.984-3.096 7.472-4.689 15.484-4.689 23.572v482.4zM160 608v-448h704v448h-704zM370.745 736l118.627-118.628c12.496-12.497 32.76-12.497 45.256 0s12.496 32.758 0 45.255l-118.856 118.856c-5.928 5.899-12.964 10.571-20.698 13.748-7.716 3.169-15.979 4.789-24.32 4.769h-210.754c-16.974 0-33.252-6.743-45.255-18.745s-18.745-28.281-18.745-45.255v-96c0-17.673 14.327-32 32-32s32 14.327 32 32v96h210.745z" />
<glyph unicode="&#xe95d;" glyph-name="folder-simple" d="M114.745 749.255c12.002 12.002 28.281 18.745 45.255 18.745h213.332c13.753-0.056 27.128-4.514 38.164-12.721l111.2-83.2c0-0.002 0.004-0.004 0.008-0.006 0.060-0.045 0.136-0.070 0.216-0.073h341.080c16.972 0 33.252-6.743 45.256-18.745 12-12.002 18.744-28.281 18.744-45.255v-451.6c0-16.020-6.364-31.384-17.692-42.708-11.324-11.328-26.688-17.692-42.708-17.692h-707.6c-16.974 0-33.252 6.744-45.255 18.744-12.002 12.004-18.745 28.284-18.745 45.256v544c0 16.974 6.743 33.252 18.745 45.255zM373.082 704h-213.082v-544h704v448h-341.332c-13.752 0.056-27.128 4.514-38.164 12.721l-111.198 83.2c-0.003 0.002-0.005 0.004-0.008 0.006-0.063 0.045-0.138 0.070-0.216 0.073z" />
<glyph unicode="&#xe95e;" glyph-name="spinner" d="M512 864c17.672 0 32-14.327 32-32v-128c0-17.673-14.328-32-32-32s-32 14.327-32 32v128c0 17.673 14.328 32 32 32zM806.228 742.227c12.496-12.497 12.496-32.758 0-45.255l-90.4-90.4c-12.5-12.497-32.76-12.497-45.256 0s-12.496 32.758 0 45.255l90.4 90.4c12.496 12.497 32.756 12.497 45.256 0zM736 448c0 17.672 14.328 32 32 32h128c17.672 0 32-14.328 32-32s-14.328-32-32-32h-128c-17.672 0-32 14.328-32 32zM670.572 289.428c12.496 12.496 32.756 12.496 45.256 0l90.4-90.4c12.496-12.496 12.496-32.756 0-45.256-12.5-12.496-32.76-12.496-45.256 0l-90.4 90.4c-12.496 12.5-12.496 32.76 0 45.256zM512 224c17.672 0 32-14.328 32-32v-128c0-17.672-14.328-32-32-32s-32 14.328-32 32v128c0 17.672 14.328 32 32 32zM353.426 289.428c12.497-12.496 12.497-32.756 0-45.256l-90.4-90.4c-12.497-12.496-32.758-12.496-45.255 0-12.497 12.5-12.497 32.76 0 45.256l90.4 90.4c12.497 12.496 32.758 12.496 45.255 0zM96 448c0 17.672 14.327 32 32 32h128c17.673 0 32-14.328 32-32s-14.327-32-32-32h-128c-17.673 0-32 14.328-32 32zM217.771 742.227c12.496 12.497 32.758 12.497 45.255 0l90.4-90.4c12.497-12.497 12.497-32.758 0-45.255s-32.758-12.496-45.255 0l-90.4 90.4c-12.497 12.497-12.497 32.758 0 45.255z" />
<glyph unicode="&#xe95f;" glyph-name="spinner-gap" d="M512 864c17.672 0 32-14.327 32-32v-128c0-17.673-14.328-32-32-32s-32 14.327-32 32v128c0 17.673 14.328 32 32 32zM736 448c0 17.672 14.328 32 32 32h128c17.672 0 32-14.328 32-32s-14.328-32-32-32h-128c-17.672 0-32 14.328-32 32zM670.572 289.428c12.496 12.496 32.756 12.496 45.256 0l90.4-90.4c12.496-12.496 12.496-32.756 0-45.256-12.5-12.496-32.76-12.496-45.256 0l-90.4 90.4c-12.496 12.5-12.496 32.76 0 45.256zM512 224c17.672 0 32-14.328 32-32v-128c0-17.672-14.328-32-32-32s-32 14.328-32 32v128c0 17.672 14.328 32 32 32zM353.426 289.428c12.497-12.496 12.497-32.756 0-45.256l-90.4-90.4c-12.497-12.496-32.758-12.496-45.255 0-12.497 12.5-12.497 32.76 0 45.256l90.4 90.4c12.497 12.496 32.758 12.496 45.255 0zM96 448c0 17.672 14.327 32 32 32h128c17.673 0 32-14.328 32-32s-14.327-32-32-32h-128c-17.673 0-32 14.328-32 32zM217.771 742.227c12.496 12.497 32.758 12.497 45.255 0l90.4-90.4c12.497-12.497 12.497-32.758 0-45.255s-32.758-12.496-45.255 0l-90.4 90.4c-12.497 12.497-12.497 32.758 0 45.255z" />
<glyph unicode="&#xe960;" glyph-name="check-square-fill" d="M832 832h-640c-16.974 0-33.252-6.743-45.255-18.745s-18.745-28.281-18.745-45.255v-640c0-16.972 6.743-33.252 18.745-45.256 12.002-12 28.281-18.744 45.255-18.744h640c16.972 0 33.252 6.744 45.256 18.744 12 12.004 18.744 28.284 18.744 45.256v640c0 16.974-6.744 33.252-18.744 45.255-12.004 12.002-28.284 18.745-45.256 18.745v0zM710 520.8l-234.4-224c-6.060-5.7-14.080-8.852-22.4-8.8-8.196-0.032-16.084 3.124-22 8.8l-117.2 112c-3.251 2.836-5.894 6.3-7.772 10.184s-2.951 8.108-3.155 12.416c-0.204 4.308 0.466 8.616 1.968 12.66s3.807 7.74 6.776 10.872c2.969 3.132 6.539 5.628 10.498 7.344s8.223 2.612 12.537 2.636c4.314 0.024 8.588-0.824 12.566-2.492s7.578-4.124 10.582-7.22l95.2-90.8 212.8 202.8c6.224 5.428 14.3 8.242 22.548 7.851s16.028-3.954 21.708-9.945c5.684-5.99 8.828-13.946 8.78-22.206-0.048-8.256-3.284-16.176-9.036-22.1z" />
<glyph unicode="&#xe961;" glyph-name="check-circle-fill" d="M512 864c-82.276 0-162.706-24.398-231.117-70.109s-121.731-110.681-153.217-186.695c-31.486-76.012-39.724-159.656-23.673-240.352s55.672-154.82 113.85-213c58.178-58.18 132.303-97.8 213-113.852 80.696-16.052 164.34-7.812 240.352 23.676 76.016 31.484 140.984 84.804 186.696 153.216 45.708 68.408 70.108 148.84 70.108 231.116-0.212 110.264-44.108 215.954-122.076 293.923-77.972 77.97-183.66 121.866-293.924 122.077v0zM710 520.8l-234.4-224c-6.060-5.7-14.080-8.852-22.4-8.8-4.068-0.060-8.104 0.688-11.88 2.2s-7.216 3.752-10.12 6.6l-117.2 112c-3.251 2.836-5.894 6.3-7.772 10.184s-2.951 8.108-3.154 12.416c-0.204 4.308 0.466 8.616 1.968 12.66s3.808 7.74 6.776 10.872c2.968 3.132 6.539 5.628 10.498 7.344s8.223 2.612 12.537 2.636c4.314 0.024 8.588-0.824 12.566-2.492s7.577-4.124 10.582-7.22l95.2-90.8 212.8 202.8c6.22 5.428 14.3 8.242 22.548 7.851s16.028-3.954 21.708-9.945c5.684-5.99 8.828-13.946 8.78-22.206-0.048-8.256-3.284-16.176-9.036-22.1z" />
<glyph unicode="&#xe962;" glyph-name="chat-centered-text-fill" d="M864 800h-704c-16.974 0-33.252-6.743-45.255-18.745s-18.745-28.281-18.745-45.255v-512c0-16.972 6.743-33.252 18.745-45.256 12.002-12 28.281-18.744 45.255-18.744h238l59.2-98.8c5.696-9.44 13.732-17.252 23.336-22.672 9.6-5.42 20.44-8.268 31.464-8.268s21.864 2.848 31.464 8.268c9.604 5.42 17.64 13.232 23.336 22.672l59.2 98.8h238c16.972 0 33.252 6.744 45.256 18.744 12 12.004 18.744 28.284 18.744 45.256v512c0 16.974-6.744 33.252-18.744 45.255-12.004 12.002-28.284 18.745-45.256 18.745v0zM640 384h-256c-8.487 0-16.626 3.372-22.628 9.372s-9.372 14.14-9.372 22.628c0 8.488 3.372 16.628 9.372 22.628s14.141 9.372 22.628 9.372h256c8.488 0 16.628-3.372 22.628-9.372s9.372-14.14 9.372-22.628c0-8.488-3.372-16.628-9.372-22.628s-14.14-9.372-22.628-9.372zM640 512h-256c-8.487 0-16.626 3.372-22.628 9.372s-9.372 14.14-9.372 22.628c0 8.488 3.372 16.626 9.372 22.628s14.141 9.372 22.628 9.372h256c8.488 0 16.628-3.372 22.628-9.372s9.372-14.14 9.372-22.628c0-8.488-3.372-16.628-9.372-22.628s-14.14-9.372-22.628-9.372z" />
<glyph unicode="&#xe963;" glyph-name="drop-half-fill" d="M696 768.799c-49.448 57.074-104.976 108.578-165.6 153.6-5.408 3.733-11.828 5.732-18.4 5.732s-12.992-1.999-18.4-5.732c-60.624-45.022-116.154-96.526-165.6-153.6-110-126-168-259.199-168-384.799 0-93.356 37.086-182.888 103.098-248.904 66.013-66.012 155.546-103.096 248.902-103.096s182.888 37.084 248.9 103.096c66.016 66.016 103.1 155.548 103.1 248.904 0 125.6-58 258.799-168 384.799zM224 384c0 228.799 222 419.999 288 471.999v-759.999c-76.348 0.104-149.542 30.48-203.53 84.468s-84.364 127.18-84.47 203.532v0z" />
<glyph unicode="&#xe964;" glyph-name="flag-fill" d="M878.4 796.8c-5.364 2.562-11.324 3.617-17.244 3.053-5.916-0.564-11.572-2.725-16.356-6.253-113.2-84.8-209.2-44-320 3.6s-241.2 103.6-384-3.6h-0.4l-1.6-1.2-3.2-3.2-0.8-1.2-1.2-1.2c0-0.4-0.4-0.8-0.8-1.2l-0.8-1.6c0-0.4-0.4-0.8-0.4-1.2-0.413-0.447-0.691-1.002-0.8-1.6-0.4-0.4-0.4-0.8-0.8-1.6s-0.4-0.8-0.4-1.2-0.4-1.2-0.4-1.6c0-0.4-0.4-0.8-0.4-1.2s-0.4-1.2-0.4-1.6v-2c0-0.4-0.4-1.2-0.4-1.6v-674.4c0-8.488 3.372-16.628 9.372-22.628s14.141-9.372 22.628-9.372c8.487 0 16.626 3.372 22.628 9.372s9.372 14.14 9.372 22.628v175.6c107.6 72.4 200.4 32.8 307.2-13.2 65.2-27.6 135.2-57.6 210.4-57.6 55.2 0 113.2 16 173.6 61.6 3.952 3.004 7.16 6.872 9.38 11.312 2.22 4.436 3.388 9.324 3.42 14.288v480c-0.048 5.945-1.712 11.764-4.812 16.837s-7.52 9.208-12.788 11.963z" />
<glyph unicode="&#xe965;" glyph-name="globe-hemisphere-west-fill" d="M886.4 266.8c27.504 56.436 41.736 118.416 41.6 181.2-0.124 91.632-30.44 180.672-86.264 253.34-55.82 72.668-134.032 124.916-222.536 148.66h-2c-64.896 17.086-132.964 18.187-198.38 3.209-65.414-14.978-126.224-45.588-177.22-89.209l-5.2-4.8c-63.321-55.885-108.114-129.735-128.412-211.716-20.298-81.976-15.139-168.196 14.792-247.168 29.93-78.976 83.21-146.956 152.744-194.892 69.534-47.932 152.020-73.544 236.476-73.424h9.6c75.536 1.868 149.148 24.212 212.972 64.648 63.828 40.44 115.476 97.452 149.428 164.952v0l2.4 5.2zM864 448c-0.072-41.908-7.52-83.476-22-122.8l-185.6 114c-7.656 4.812-16.244 7.948-25.2 9.2l-91.2 12c-11.716 1.516-23.62-0.22-34.412-5.020-10.796-4.796-20.064-12.468-26.788-22.18h-34.4l-15.2 31.6c-4.256 8.728-10.424 16.384-18.040 22.408s-16.487 10.26-25.96 12.392l-26.4 5.6 10 23.6c2.491 5.792 6.619 10.732 11.876 14.216 5.258 3.48 11.418 5.352 17.724 5.384h64.4c10.776 0.048 21.364 2.8 30.8 8l48.8 27.2c4.308 2.334 8.332 5.153 12 8.4l107.6 97.6c9.368 8.212 16.080 19.024 19.284 31.062s2.76 24.756-1.284 36.538c55.648-30.223 102.108-74.897 134.492-129.314s49.488-116.562 49.508-179.886zM160 448c-0.092 55.196 12.933 109.624 38 158.8l41.6-111.6c3.804-9.996 10.038-18.888 18.139-25.872s17.813-11.84 28.261-14.128l22-4.8h0.4l48-10.4c4.751-0.96 9.213-3.016 13.032-6 3.819-2.988 6.89-6.82 8.968-11.2l8.4-17.6c5.293-10.772 13.492-19.852 23.668-26.212s21.932-9.752 33.932-9.788h4.8l-30.8-68.8c-5.204-11.412-6.916-24.108-4.924-36.492s7.604-23.904 16.124-33.108l64.4-69.6c3.316-3.708 5.756-8.112 7.14-12.888 1.384-4.78 1.68-9.808 0.86-14.712l-7.2-37.2c-90.24 4.512-175.3 43.512-237.607 108.948-62.307 65.432-97.1 152.3-97.193 242.652v0z" />
<glyph unicode="&#xe966;" glyph-name="lightning-fill" d="M863.2 487.2c-1.188 5.16-3.636 9.94-7.128 13.92-3.488 3.98-7.912 7.032-12.872 8.88l-230.4 86.4 58.4 293.2c1.344 6.792 0.476 13.835-2.476 20.098s-7.832 11.415-13.924 14.702c-6.152 3.273-13.216 4.42-20.088 3.263s-13.168-4.555-17.912-9.663l-447.999-480c-3.671-3.808-6.327-8.476-7.724-13.58-1.398-5.1-1.492-10.472-0.276-15.62 1.252-5.128 3.725-9.88 7.206-13.852 3.482-3.968 7.871-7.040 12.794-8.948l230.399-86.4-58.399-293.2c-1.343-6.792-0.475-13.836 2.476-20.096 2.952-6.264 7.831-11.416 13.924-14.704 4.593-2.316 9.656-3.548 14.8-3.6 4.347-0.020 8.651 0.86 12.643 2.58s7.584 4.248 10.556 7.42l448 480c3.672 3.808 6.328 8.476 7.724 13.58 1.4 5.1 1.496 10.472 0.276 15.62v0z" />
<glyph unicode="&#xe967;" glyph-name="envelope" d="M104.411 757.623c11.942 13.028 32.184 13.908 45.212 1.966l362.377-332.177 362.376 332.177c13.028 11.942 33.272 11.062 45.212-1.966 11.944-13.028 11.064-33.27-1.964-45.212l-384-351.999c-12.236-11.216-31.012-11.216-43.248 0l-383.999 351.999c-13.028 11.942-13.908 32.184-1.966 45.212zM96 736c0 17.673 14.327 32 32 32h768c17.672 0 32-14.327 32-32v-544c0-16.972-6.744-33.252-18.744-45.256-12.004-12-28.284-18.744-45.256-18.744h-704c-16.974 0-33.252 6.744-45.255 18.744-12.002 12.004-18.745 28.284-18.745 45.256v544zM160 704v-512h704v512h-704zM465.584 469.628c11.944-13.024 11.068-33.268-1.956-45.212l-303.999-278.8c-13.025-11.944-33.267-11.068-45.212 1.956s-11.070 33.268 1.955 45.212l304.001 278.8c13.024 11.944 33.268 11.068 45.212-1.956zM558.416 469.628c11.944 13.024 32.188 13.9 45.212 1.956l304-278.8c13.024-11.944 13.9-32.188 1.956-45.212s-32.188-13.9-45.212-1.956l-304 278.8c-13.024 11.944-13.9 32.188-1.956 45.212z" />
</font>
</defs>
</svg>
